<?xml version="1.0" standalone="no"?>
<!DOCTYPE svg PUBLIC "-//W3C//DTD SVG 1.1//EN" "http://www.w3.org/Graphics/SVG/1.1/DTD/svg11.dtd" >
<svg xmlns="http://www.w3.org/2000/svg" xmlns:xlink="http://www.w3.org/1999/xlink" version="1.1">
<metadata>
Created by FontForge 20161003 at Wed Apr 25 13:39:01 2018
 By www-data
 (c) Ofir Shavit  (FFC). All Rights Reserved. contact equilibs@gmail.com
</metadata>
<defs>
<font id="." horiz-adv-x="0" >
  <font-face 
    font-family="."
    font-weight="400"
    font-stretch="normal"
    units-per-em="2048"
    panose-1="2 0 5 6 5 0 0 2 0 4"
    ascent="1536"
    descent="-512"
    x-height="938"
    cap-height="1268"
    bbox="-254 -461 1704 1729"
    underline-thickness="145"
    underline-position="-206"
    unicode-range="U+000D-FB02"
  />
<missing-glyph horiz-adv-x="748" 
d="M68 0v1365h544v-1365h-544zM136 68h408v1229h-408v-1229z" />
    <glyph glyph-name=".notdef" horiz-adv-x="748" 
d="M68 0v1365h544v-1365h-544zM136 68h408v1229h-408v-1229z" />
    <glyph glyph-name="glyph1" 
 />
    <glyph glyph-name="glyph2" horiz-adv-x="682" 
 />
    <glyph glyph-name="glyph3" 
 />
    <glyph glyph-name="glyph3" 
 />
    <glyph glyph-name="uni000D" unicode="&#xd;" horiz-adv-x="512" 
 />
    <glyph glyph-name="space" unicode=" " horiz-adv-x="430" 
 />
    <glyph glyph-name="exclam" unicode="!" horiz-adv-x="495" 
d="M168 1286h158l-21 -1014h-115zM250 -27q-41 0 -66.5 26.5t-25.5 66.5q0 42 26 67t68 25q40 0 66 -25.5t26 -66.5t-27 -67t-67 -26z" />
    <glyph glyph-name="quotedbl" unicode="&#x22;" horiz-adv-x="552" 
d="M119 821l-21 439h129l-20 -439h-88zM348 821l-22 439h129l-19 -439h-88z" />
    <glyph glyph-name="numbersign" unicode="#" horiz-adv-x="1157" 
d="M428 881l-61 -480h368l58 480h-365zM59 881v86h269l41 309h114l-41 -309h363l39 307h114l-36 -307h176v-86h-189l-57 -480h246v-98h-260l-37 -303h-115l37 303h-371l-39 -301h-114l39 301h-179v98h195l61 480h-256z" />
    <glyph glyph-name="dollar" unicode="$" horiz-adv-x="966" 
d="M834 1229l-41 -103q-119 42 -244 45v-464q52 -28 82.5 -46t75.5 -48.5t72 -59t54 -66t39.5 -82.5t12.5 -96q0 -141 -90.5 -221t-245.5 -100v-164h-72v158q-12 -2 -37 -2q-137 0 -374 55l24 106q212 -45 330 -45q39 0 57 2v475l-37 21q-48 25 -71.5 38t-67 39.5t-66 45
t-53.5 49.5t-46 59.5t-26.5 67t-11.5 80.5q0 78 31.5 140t86 99t120.5 56.5t141 21.5v117h72v-119q146 -6 285 -59zM264 985q0 -76 54.5 -130t158.5 -110v424q-93 -7 -153 -51t-60 -133zM719 305q0 71 -44 124t-126 103v-423q170 39 170 196z" />
    <glyph glyph-name="percent" unicode="%" horiz-adv-x="1462" 
d="M367 1212q-41 0 -70 -18t-44 -44t-23.5 -69t-10.5 -77.5t-2 -85.5q0 -42 1.5 -72t6 -67t14.5 -62t26 -47.5t42 -33.5t60 -11q35 0 61 11t42 33.5t26 47t14.5 61.5t6 66t1.5 71q0 51 -2 86.5t-10.5 78.5t-24 69.5t-44.5 44.5t-70 18zM367 1280q62 0 107 -22t70 -55.5
t39.5 -85t18.5 -97t4 -105.5q0 -61 -4 -106t-18 -96t-39 -83t-70 -53.5t-108 -21.5q-62 0 -107 22t-70 55t-39.5 84t-19 97t-4.5 105q0 48 3 87t11.5 83t25.5 76t42.5 59.5t65.5 42t92 14.5zM1176 1315l-773 -1346h-94l772 1346h95zM1116 639q-41 0 -70 -18t-44.5 -44
t-24 -69t-10.5 -78t-2 -86t2 -86.5t10.5 -77.5t24 -68t44.5 -43.5t70 -17.5q34 0 60 11t42 33t26.5 47t15.5 61t6.5 66t1.5 71q0 42 -1.5 72.5t-6.5 68t-15.5 63.5t-26.5 49t-42 34.5t-60 11.5zM1114 707q63 0 108.5 -22.5t70.5 -56t40 -85t19 -97.5t4 -106q0 -49 -3 -87.5
t-11.5 -82.5t-25.5 -76t-42.5 -59t-65.5 -41t-92 -14q-62 0 -107 22t-70 55t-39.5 84.5t-18.5 97t-4 105.5q0 59 4 104t18.5 96.5t39 84.5t69.5 55.5t106 22.5z" />
    <glyph glyph-name="ampersand" unicode="&#x26;" horiz-adv-x="1234" 
d="M449 795q10 11 43 42.5t51 51t41.5 50t35 59.5t11.5 57q0 60 -41.5 97.5t-104.5 37.5q-68 0 -110.5 -46.5t-42.5 -115.5q0 -38 21 -84.5t40.5 -74t55.5 -74.5zM870 145q-157 -170 -362 -170q-146 0 -256.5 95t-110.5 237q0 49 16.5 100t36 87t59 85.5t60 71.5t64.5 68
q-44 56 -70.5 94.5t-52 100t-25.5 116.5q0 103 69 176.5t183 73.5q104 0 180 -62.5t76 -164.5q0 -28 -6 -54.5t-22.5 -55.5t-28 -48t-40.5 -51t-40 -43.5t-47.5 -47.5t-42.5 -42l360 -422q91 122 131 284l89 -22q-42 -179 -150 -324q86 -94 213 -139l-35 -104
q-140 51 -248 161zM258 305q0 -96 74.5 -161.5t173.5 -65.5q159 0 297 135l-365 424q-180 -180 -180 -332z" />
    <glyph glyph-name="quotesingle" unicode="'" horiz-adv-x="335" 
d="M121 821l-23 439h140l-21 -439h-96z" />
    <glyph glyph-name="parenleft" unicode="(" horiz-adv-x="509" 
d="M449 1405l53 -47q-121 -140 -186.5 -382t-65.5 -460q0 -105 13.5 -216t41.5 -227.5t78 -222.5t117 -176l-51 -45q-312 321 -312 887q0 236 85.5 489.5t226.5 399.5z" />
    <glyph glyph-name="parenright" unicode=")" horiz-adv-x="509" 
d="M8 1358l53 47q141 -146 226.5 -399.5t85.5 -489.5q0 -566 -312 -887l-51 45q67 70 117 176t78 222.5t41.5 227.5t13.5 216q0 218 -65.5 460t-186.5 382z" />
    <glyph glyph-name="asterisk" unicode="*" horiz-adv-x="776" 
d="M389 1020l-67 -139q-30 -73 -95 -105q-24 1 -40.5 17.5t-18.5 40.5q24 61 59 98l125 117l-211 30q-23 3 -45 19.5t-30 42.5q0 24 15.5 42t39.5 21q41 -8 112 -43l132 -67q-2 12 -12.5 61t-15.5 80.5t-5 58.5q0 30 14.5 54.5t36.5 33.5q25 0 42.5 -14.5t20.5 -36.5
q0 -20 -3.5 -55l-4.5 -45l-24 -137l143 80q32 13 100 30q23 -3 38.5 -20.5t17.5 -42.5q-9 -22 -32 -40.5t-46 -21.5l-213 -30q14 -14 65 -61.5t79 -81.5t42 -70q-1 -24 -18 -41t-41 -19q-54 23 -92 92z" />
    <glyph glyph-name="plus" unicode="+" horiz-adv-x="1036" 
d="M129 678h334v295h112v-295h332v-92h-332v-324h-112v324h-334v92z" />
    <glyph glyph-name="comma" unicode="," horiz-adv-x="315" 
d="M264 102l-119 -321l-94 24l76 334z" />
    <glyph glyph-name="hyphen" unicode="-" horiz-adv-x="681" 
d="M575 432h-469v90h469v-90z" />
    <glyph glyph-name="period" unicode="." horiz-adv-x="378" 
d="M188 -20q-41 0 -66.5 25.5t-25.5 66.5t26.5 66.5t67.5 25.5q40 0 66.5 -26t26.5 -66q0 -42 -27 -67t-68 -25z" />
    <glyph glyph-name="slash" unicode="/" horiz-adv-x="616" 
d="M575 1319l-409 -1415h-121l404 1415h126z" />
    <glyph glyph-name="zero" unicode="0" horiz-adv-x="1024" 
d="M512 1163q-46 0 -84 -12t-65 -36t-47.5 -52.5t-33.5 -70t-21 -80t-12 -90t-5.5 -93t-1.5 -96.5q0 -63 1.5 -110t8 -105.5t17.5 -100.5t31 -85t48 -69.5t69.5 -43.5t94.5 -17t94.5 17t69 43t47.5 69.5t31 85t17 100.5t7.5 105t1.5 109q0 64 -1.5 111t-8 106t-17.5 101
t-31 84.5t-47.5 69.5t-69 43.5t-93.5 16.5zM510 1282q79 0 142.5 -20.5t107.5 -54t76 -85t50.5 -105t29.5 -123t14.5 -129.5t3.5 -134q0 -75 -3 -135t-14 -129.5t-29 -121.5t-50 -103t-75.5 -83.5t-107 -52.5t-143.5 -20q-79 0 -142.5 20t-107.5 53.5t-76 84.5t-50.5 104
t-29.5 122t-14.5 129t-3.5 134q0 73 3.5 132.5t14.5 129t29.5 122.5t50.5 105t75.5 85.5t106.5 54t142 20.5z" />
    <glyph glyph-name="one" unicode="1" horiz-adv-x="1024" 
d="M244 819l-64 111q108 66 188.5 144.5t161.5 193.5h134v-1268h-154v1073q-26 -71 -78 -120t-188 -134z" />
    <glyph glyph-name="two" unicode="2" horiz-adv-x="1024" 
d="M252 932h-109v242q72 38 116 57t115 35t150 16q103 0 187.5 -37.5t139 -119.5t54.5 -197q0 -57 -25 -124.5t-58.5 -125t-89.5 -130t-96 -118t-101 -111.5l-187 -202h578v-117h-842l276 317q184 209 252 304q136 189 136 309q0 103 -69 168t-173 65q-77 0 -125 -14
t-117 -49z" />
    <glyph glyph-name="three" unicode="3" horiz-adv-x="1024" 
d="M90 78l62 110q88 -45 155 -63.5t160 -18.5q117 0 195.5 71.5t78.5 187.5q0 124 -77.5 185.5t-198.5 63.5v103q63 0 119 23.5t94.5 74t38.5 117.5q0 107 -68.5 169t-173.5 62q-134 0 -242 -63l-12 -168h-108v242q174 108 381 108q71 0 136.5 -20.5t120 -61t87.5 -108
t34 -154.5q0 -91 -53.5 -165.5t-136.5 -102.5q98 -27 156.5 -112.5t58.5 -192.5q0 -182 -118.5 -280.5t-303.5 -98.5q-116 0 -200 20t-185 72z" />
    <glyph glyph-name="four" unicode="4" horiz-adv-x="1024" 
d="M475 1282l141 -25q-40 -233 -128.5 -422t-247.5 -421v-29h491v326h154v-711h-154v268h-651v156l57 88q72 108 116 182t91.5 170.5t78.5 198t52 219.5z" />
    <glyph glyph-name="five" unicode="5" horiz-adv-x="1024" 
d="M86 82l64 111q96 -48 165.5 -68.5t161.5 -20.5q135 0 214 88t79 236q0 136 -67 211.5t-193 75.5q-88 0 -150 -30t-118 -95l-129 16l65 662h684v-117h-553l-53 -424q102 131 281 131q172 0 279.5 -117.5t107.5 -308.5q0 -200 -113 -323t-309 -123q-127 0 -218 20t-198 76z
" />
    <glyph glyph-name="six" unicode="6" horiz-adv-x="1024" 
d="M242 426q0 -137 70 -229.5t200 -92.5q132 0 200 91t68 231q0 141 -68 229t-200 88q-136 0 -203 -87t-67 -230zM633 1294l78 -108q-116 -88 -215.5 -195t-139.5 -200q17 26 73.5 50.5t121.5 24.5q98 0 172.5 -34t120 -94.5t68 -138.5t22.5 -171q0 -209 -108 -325.5
t-314 -116.5q-201 0 -312.5 119.5t-111.5 322.5q0 126 47 253.5t128 238t172.5 202t197.5 172.5z" />
    <glyph glyph-name="seven" unicode="7" horiz-adv-x="1024" 
d="M229 1151l-12 -164h-108v281h804v-160l-264 -502q-100 -161 -166.5 -322t-66.5 -284h-144q0 60 14 124.5t47 143t56 128t70 141.5l295 585l2 29h-527z" />
    <glyph glyph-name="eight" unicode="8" horiz-adv-x="1024" 
d="M512 612q-120 0 -194 -67t-74 -189q0 -121 74 -186.5t194 -65.5t194 65.5t74 186.5q0 123 -74 189.5t-194 66.5zM694 680q107 -33 174.5 -120t67.5 -198q0 -121 -58 -207.5t-152.5 -127.5t-213.5 -41q-185 0 -304.5 98.5t-119.5 277.5q0 113 66 199t174 119
q-191 62 -191 274q0 153 106 240.5t269 87.5q103 0 187 -37t136 -113t52 -178q0 -217 -193 -274zM274 952q0 -105 65 -159t171 -54q107 0 172.5 54t65.5 159q0 101 -67 156t-171 55q-102 0 -169 -55.5t-67 -155.5z" />
    <glyph glyph-name="nine" unicode="9" horiz-adv-x="1024" 
d="M780 842q0 137 -70 229t-200 92q-68 0 -120 -25.5t-84 -70t-48 -101.5t-16 -124q0 -141 68 -229.5t200 -88.5q136 0 203 87.5t67 230.5zM389 -27l-78 109q116 88 215.5 195t139.5 200q-17 -27 -73.5 -51.5t-121.5 -24.5q-98 0 -172.5 34t-120 95t-68 139t-22.5 171
q0 209 108 325.5t314 116.5q201 0 312.5 -119.5t111.5 -322.5q0 -126 -47 -253.5t-128 -238.5t-172.5 -202.5t-197.5 -172.5z" />
    <glyph glyph-name="colon" unicode=":" horiz-adv-x="481" 
d="M242 748q-40 0 -66 25.5t-26 66.5t27 66.5t67 25.5q41 0 66.5 -26t25.5 -66q0 -42 -26 -67t-68 -25zM242 -20q-40 0 -66 25.5t-26 66.5t27 66.5t67 25.5q41 0 66.5 -26t25.5 -66q0 -42 -26 -67t-68 -25z" />
    <glyph glyph-name="semicolon" unicode=";" horiz-adv-x="430" 
d="M215 750q-41 0 -66.5 25.5t-25.5 66.5t26.5 66.5t67.5 25.5q40 0 66 -26t26 -66q0 -42 -26.5 -67t-67.5 -25zM303 102l-119 -321l-94 24l76 334z" />
    <glyph glyph-name="less" unicode="&#x3c;" horiz-adv-x="1046" 
d="M987 1053v-121l-721 -252l721 -254v-121l-870 336v76z" />
    <glyph glyph-name="equal" unicode="=" horiz-adv-x="1077" 
d="M967 389h-856v92h856v-92zM967 803h-856v92h856v-92z" />
    <glyph glyph-name="greater" unicode="&#x3e;" horiz-adv-x="1046" 
d="M117 932v121l870 -336v-76l-870 -336v121l721 254z" />
    <glyph glyph-name="question" unicode="?" horiz-adv-x="940" 
d="M231 915l-120 -14q-2 16 -2 49q0 149 102.5 246.5t257.5 97.5q164 0 272.5 -97t108.5 -255q0 -71 -32 -139t-78 -122t-91.5 -106t-77.5 -111t-32 -116h-136v8q0 67 30.5 134.5t74 123t87.5 110t74.5 115t30.5 117.5q0 84 -65 143.5t-166 59.5q-111 0 -174.5 -67.5
t-63.5 -176.5zM471 -27q-40 0 -66 26.5t-26 66.5q0 42 26.5 67t67.5 25t66.5 -25.5t25.5 -66.5t-26.5 -67t-67.5 -26z" />
    <glyph glyph-name="at" unicode="@" horiz-adv-x="1732" 
d="M557 367q0 -44 9 -89t29 -89.5t59 -72.5t91 -28q76 0 154.5 39t132.5 102q12 219 80 482q-35 66 -96 106.5t-133 40.5q-68 0 -125.5 -36.5t-93.5 -91.5t-61 -123t-35.5 -129t-10.5 -111zM872 961q83 0 156 -39t117 -101l31 94l104 -32l-29 -99q-100 -338 -112 -702
q151 17 249.5 159t98.5 341q0 269 -161 437.5t-423 168.5q-201 0 -362.5 -103.5t-249.5 -274t-88 -370.5q0 -195 83.5 -352.5t237 -248.5t348.5 -91q193 0 368.5 73t301.5 218l68 78l65 -56l-65 -77q-140 -166 -329 -251t-409 -85q-229 0 -408.5 101t-279.5 281.5
t-100 409.5q0 174 61 330.5t168 271.5t260.5 182.5t329.5 67.5q205 0 366.5 -90t251 -251.5t89.5 -366.5q0 -122 -44 -232t-117.5 -188t-173 -124t-206.5 -46q-23 0 -55 4l6 108q-56 -53 -137 -86.5t-158 -33.5q-95 0 -162.5 55.5t-97 139.5t-29.5 188q0 77 17 157.5
t52.5 158.5t86 139.5t123.5 99t157 37.5z" />
    <glyph glyph-name="A" unicode="A" horiz-adv-x="1050" 
d="M291 377h469l-234 694zM1036 0h-147l-90 260h-547l-92 -260h-146l443 1270h141z" />
    <glyph glyph-name="B" unicode="B" horiz-adv-x="1093" 
d="M690 594h-379v-477h379q78 0 120 68t42 161q0 37 -9 77.5t-27 80t-51 65t-75 25.5zM311 1151v-446h324q53 0 90.5 38.5t52.5 88.5t15 102q0 84 -42.5 150.5t-115.5 66.5h-324zM809 666q102 -22 154.5 -115.5t52.5 -204.5q0 -154 -86 -250t-219 -96h-555q0 244 1 661
t1 607h493q131 0 213 -100t82 -234q0 -87 -36 -162t-101 -106z" />
    <glyph glyph-name="C" unicode="C" horiz-adv-x="1003" 
d="M936 133l29 -113q-219 -40 -396 -40q-111 0 -196.5 37.5t-137.5 98.5t-85 148.5t-45.5 176.5t-12.5 194t12.5 194t45.5 176.5t85.5 148.5t138 98.5t197.5 37.5q108 0 191.5 -16t175.5 -57l-45 -105q-81 36 -150.5 49t-164.5 13q-78 0 -137.5 -35.5t-93.5 -89.5
t-55.5 -129.5t-28.5 -143t-7 -141.5q0 -76 6.5 -143.5t27.5 -143t55 -129.5t93 -89.5t137 -35.5q149 0 361 39z" />
    <glyph glyph-name="D" unicode="D" horiz-adv-x="1165" 
d="M309 1151v-1034h312q59 0 106 23t77 64.5t51 91.5t32 112.5t15.5 118t4.5 116.5q0 508 -286 508h-312zM627 0h-471v1268h471q104 0 184 -37t128.5 -96.5t79 -144t41.5 -170t11 -185.5t-12.5 -187.5t-44 -171.5t-80.5 -143.5t-127.5 -96t-179.5 -36.5z" />
    <glyph glyph-name="E" unicode="E" horiz-adv-x="962" 
d="M158 1268h735v-117h-582v-418h430v-117h-430v-499h623v-117h-776v1268z" />
    <glyph glyph-name="F" unicode="F" horiz-adv-x="876" 
d="M156 1268h684v-117h-531v-418h404v-125h-404v-608h-153v1268z" />
    <glyph glyph-name="G" unicode="G" horiz-adv-x="1165" 
d="M874 121v514h154v-606q-220 -49 -459 -49q-111 0 -196.5 37.5t-137.5 98.5t-85 148.5t-45.5 176.5t-12.5 194q0 104 12.5 194t46 177t86 148t138 98.5t196.5 37.5q217 0 455 -86l-39 -106q-213 78 -416 78q-65 0 -117 -24.5t-85 -68.5t-56.5 -96t-35 -116t-16.5 -119.5
t-5 -114.5q0 -70 4.5 -129.5t16.5 -124.5t34.5 -114.5t56 -91t85 -63.5t116.5 -22q166 0 305 29z" />
    <glyph glyph-name="H" unicode="H" horiz-adv-x="1163" 
d="M1008 1268v-1268h-154v612h-545v-612h-153v1268h153v-539h545v539h154z" />
    <glyph glyph-name="I" unicode="I" horiz-adv-x="468" 
d="M158 0v1268h153v-1268h-153z" />
    <glyph glyph-name="J" unicode="J" horiz-adv-x="735" 
d="M436 291v977h154v-977q0 -153 -79 -232t-232 -79q-93 0 -265 36l27 113q90 -23 192 -23q97 0 150 45.5t53 139.5z" />
    <glyph glyph-name="K" unicode="K" horiz-adv-x="1105" 
d="M166 1268h153v-592l37 29q62 48 100 79t90.5 78.5t95.5 97t79 103.5q40 55 115 205h165q-42 -86 -86 -156.5t-79.5 -117t-87.5 -96.5t-84.5 -77t-96.5 -78t-100 -81l580 -662h-191l-537 635v-635h-153v1268z" />
    <glyph glyph-name="L" unicode="L" horiz-adv-x="894" 
d="M156 0v1268h153v-1151h547v-117h-700z" />
    <glyph glyph-name="M" unicode="M" horiz-adv-x="1478" 
d="M303 1010l6 -1010h-153v1268h166l417 -1043l408 1043h174v-1268h-147v1010l-379 -1010h-109q-90 233 -383 1010z" />
    <glyph glyph-name="N" unicode="N" horiz-adv-x="1165" 
d="M293 1020v-1020h-137v1268h151l567 -1063v1063h136v-1268h-164z" />
    <glyph glyph-name="O" unicode="O" horiz-adv-x="1216" 
d="M256 635q0 -56 3.5 -106t14 -106t27 -102.5t44 -90t63.5 -73t87.5 -47.5t114.5 -18q86 0 151 34.5t102 87.5t60 128t30.5 144t7.5 149q0 55 -3.5 104.5t-14 105t-27 102t-44 89.5t-63 72.5t-86.5 47.5t-113 18q-354 0 -354 -539zM92 635q0 106 16.5 199t55.5 178
t97 145.5t147.5 96.5t201.5 36q111 0 200 -36t147 -97.5t96 -146.5t54.5 -177.5t16.5 -197.5t-16.5 -198t-54.5 -178t-96 -146t-147 -97t-200 -36q-112 0 -201.5 36t-147.5 96.5t-97 145.5t-55.5 178t-16.5 199z" />
    <glyph glyph-name="P" unicode="P" horiz-adv-x="1058" 
d="M309 1151v-567h303q49 0 87 16t61.5 42.5t39 64.5t21.5 77.5t6 85.5q0 45 -6 84.5t-21.5 76t-39.5 63t-61 42t-85 15.5h-305zM156 0v1268h458q182 0 278.5 -108.5t96.5 -291.5q0 -189 -95.5 -295t-281.5 -106h-303v-467h-153z" />
    <glyph glyph-name="Q" unicode="Q" horiz-adv-x="1218" 
d="M258 635q0 -56 3.5 -106t14 -106t27 -102.5t44 -90t63.5 -73t87.5 -47.5t114.5 -18q86 0 151 34.5t102 87.5t60 128t30.5 144t7.5 149q0 55 -3.5 104.5t-14 105t-27 102t-44 89.5t-63 72.5t-86.5 47.5t-113 18q-354 0 -354 -539zM92 635q0 106 16.5 199t55.5 178
t97 145.5t147.5 96.5t201.5 36t201 -36t147 -97t96.5 -146.5t55 -178t16.5 -197.5q0 -379 -190 -543l166 -209l-109 -92l-184 229q-84 -40 -197 -40q-112 0 -201.5 36t-148 96.5t-97.5 145.5t-55.5 178t-17.5 199z" />
    <glyph glyph-name="R" unicode="R" horiz-adv-x="1112" 
d="M311 1151v-528h293q64 0 108.5 21t69 61.5t35 90t10.5 115.5q0 240 -225 240h-291zM883 0l-336 506h-238v-506h-153v1268h399q79 0 141.5 -9.5t119 -34t93.5 -65t58.5 -105.5t21.5 -151q0 -153 -66 -257t-208 -126l350 -520h-182z" />
    <glyph glyph-name="S" unicode="S" horiz-adv-x="954" 
d="M834 1229l-41 -103q-122 45 -275 45q-49 0 -92 -9.5t-80.5 -29.5t-59.5 -58t-22 -89q0 -44 21 -83t57 -69t83 -58t98.5 -55t102.5 -55.5t98 -64t83 -76t57 -96t21 -119.5q0 -110 -59.5 -185.5t-157.5 -109.5t-228 -34q-137 0 -374 55l24 106q212 -45 330 -45
q299 0 299 209q0 47 -21 88.5t-57 72.5t-83 60t-98.5 56t-102.5 55t-98 61.5t-83 72t-57 90.5t-21 112q0 64 21.5 117.5t58.5 90t87 61.5t106 36.5t116 11.5q190 0 347 -61z" />
    <glyph glyph-name="T" unicode="T" horiz-adv-x="905" 
d="M20 1268h865v-117h-350v-1151h-154v1151h-361v117z" />
    <glyph glyph-name="U" unicode="U" horiz-adv-x="1175" 
d="M145 340v928h156v-926q0 -127 79.5 -187.5t209.5 -60.5q129 0 206.5 60.5t77.5 185.5v928h156v-924q0 -95 -34.5 -167.5t-96 -115t-139 -63.5t-170.5 -21t-170.5 20t-140.5 62t-98.5 113.5t-35.5 167.5z" />
    <glyph glyph-name="V" unicode="V" horiz-adv-x="1046" 
d="M473 0l-469 1268h166l356 -1030l353 1030h163l-462 -1268h-107z" />
    <glyph glyph-name="W" unicode="W" horiz-adv-x="1519" 
d="M39 1270h162l176 -1055l305 1055h158l303 -1055l176 1055h162l-242 -1270h-160l-319 1081l-322 -1081h-157z" />
    <glyph glyph-name="X" unicode="X" horiz-adv-x="1050" 
d="M242 1268l282 -469l283 469h158l-361 -598l406 -672h-164l-324 541l-323 -539h-164l405 668l-362 600h164z" />
    <glyph glyph-name="Y" unicode="Y" horiz-adv-x="937" 
d="M545 608v-608h-154v608l-379 660h158l299 -523l299 523h156z" />
    <glyph glyph-name="Z" unicode="Z" horiz-adv-x="876" 
d="M72 1151v117h782l-606 -1151h577v-117h-802l616 1151h-567z" />
    <glyph glyph-name="bracketleft" unicode="[" horiz-adv-x="589" 
d="M289 -305h280v-101h-395v1940h395v-98h-280v-1741z" />
    <glyph glyph-name="backslash" unicode="\" horiz-adv-x="546" 
d="M412 -27l-394 1350h115l393 -1350h-114z" />
    <glyph glyph-name="bracketright" unicode="]" horiz-adv-x="589" 
d="M416 -406h-396v99h281v1745h-281v98h396v-1942z" />
    <glyph glyph-name="asciicircum" unicode="^" horiz-adv-x="854" 
d="M809 612h-98l-281 557l-289 -557h-98l356 693h60z" />
    <glyph glyph-name="underscore" unicode="_" horiz-adv-x="1007" 
d="M993 -375h-979v109h979v-109z" />
    <glyph glyph-name="grave" unicode="`" horiz-adv-x="385" 
d="M106 1300h123l93 -280h-54z" />
    <glyph glyph-name="a" unicode="a" horiz-adv-x="888" 
d="M621 178v334q-74 -16 -122 -28.5t-100 -29.5t-82.5 -35t-56.5 -43t-37.5 -56.5t-11.5 -71.5q0 -71 40.5 -115.5t104.5 -44.5q131 0 265 90zM182 813l-22 96q192 49 315 49q162 0 226.5 -84t64.5 -249v-625h-137l-4 98q-80 -60 -147 -89t-152 -29q-117 0 -185.5 75.5
t-68.5 194.5q0 43 9.5 79t32 65.5t46.5 52t67 42.5t78 34t95.5 30t103.5 25.5t117 25.5q0 142 -33 194t-135 52q-21 0 -45.5 -2t-43.5 -4t-48.5 -7t-43.5 -7.5t-47.5 -8.5t-42.5 -8z" />
    <glyph glyph-name="b" unicode="b" horiz-adv-x="976" 
d="M737 471q0 379 -219 379q-57 0 -110 -25t-117 -69v-606q70 -33 122 -47.5t119 -14.5q44 0 78 15.5t55.5 44.5t36.5 63.5t22 80.5t10 87.5t3 91.5zM893 467q0 -70 -9 -134t-33 -130t-61.5 -114t-99 -78.5t-141.5 -30.5q-78 0 -134.5 19t-127.5 58l-11 -57h-131v1356h146
v-494q69 48 127.5 72t128.5 24q81 0 143.5 -31t100 -79t61.5 -115t32.5 -131t8.5 -135z" />
    <glyph glyph-name="c" unicode="c" horiz-adv-x="811" 
d="M764 918l-23 -95q-140 35 -276 35q-53 0 -94 -26.5t-65 -67.5t-39.5 -95t-21 -103t-5.5 -99q0 -66 10 -128t33.5 -123.5t69.5 -98.5t110 -37q101 0 166 7.5t145 31.5l27 -94q-103 -25 -173 -35t-169 -10q-80 0 -144 28t-106.5 74.5t-71 110t-41 131.5t-12.5 143
q0 77 12 146.5t40 133.5t71 110t108.5 73.5t147.5 27.5q153 0 301 -40z" />
    <glyph glyph-name="d" unicode="d" horiz-adv-x="976" 
d="M240 471q0 -50 3 -91.5t10 -87.5t21.5 -80.5t36.5 -63.5t55.5 -44.5t77.5 -15.5q67 0 120 14.5t122 47.5v606q-64 44 -117 69t-110 25q-219 0 -219 -379zM84 467q0 71 8.5 135t32.5 131t61.5 115t100 79t143.5 31q70 0 128.5 -24t127.5 -72v494h145v-1356h-131l-10 57
q-71 -39 -127.5 -58t-134.5 -19q-80 0 -141.5 30.5t-99 78.5t-61.5 114t-33 130t-9 134z" />
    <glyph glyph-name="e" unicode="e" horiz-adv-x="962" 
d="M877 422h-637q4 -342 258 -342q215 0 325 41l21 -92q-133 -49 -346 -49q-108 0 -189 37.5t-129.5 104.5t-72 153.5t-23.5 191.5q0 101 22.5 187t68.5 155.5t125.5 109t184.5 39.5q92 0 161.5 -28.5t113 -76.5t70 -118.5t37 -145.5t10.5 -167zM240 512h491q0 51 -7 97.5
t-24.5 93t-44.5 80t-70.5 54.5t-99.5 21q-70 0 -120 -31t-75.5 -84t-37 -109.5t-12.5 -121.5z" />
    <glyph glyph-name="f" unicode="f" horiz-adv-x="581" 
d="M627 1352l-15 -105q-81 13 -133 13q-49 0 -83 -16.5t-53 -42t-29.5 -70t-13.5 -87t-3 -106.5h270v-107h-272v-831h-145v831h-138v107h142q0 229 68 329.5t233 100.5q87 0 172 -16z" />
    <glyph glyph-name="g" unicode="g" horiz-adv-x="974" 
d="M684 164q-72 -51 -132 -76t-132 -25q-74 0 -133 25t-96.5 67t-62 99.5t-34.5 119t-10 130.5q0 73 10 136.5t35 123t63 101.5t98 67.5t136 25.5q81 0 134.5 -17t127.5 -56l8 53h133v-942q0 -160 -100 -236.5t-283 -76.5q-77 0 -272 26l14 105q139 -21 228 -21
q268 0 268 211v160zM238 508q0 -51 5.5 -95t20 -89.5t37.5 -77.5t62 -52t90 -20q120 0 231 90v524q-121 62 -242 62q-204 0 -204 -342z" />
    <glyph glyph-name="h" unicode="h" horiz-adv-x="972" 
d="M588 958q60 0 107 -17.5t75 -45t46.5 -66t25 -76.5t6.5 -81v-672h-141v676q0 72 -36.5 119t-103.5 47q-160 0 -276 -119v-723h-146v1356h146v-522q130 124 297 124z" />
    <glyph glyph-name="i" unicode="i" horiz-adv-x="436" 
d="M145 0v938h146v-938h-146zM221 1296q39 0 63.5 -24.5t24.5 -63.5q0 -41 -25 -64.5t-65 -23.5t-65 24t-25 64t25.5 64t66.5 24z" />
    <glyph glyph-name="j" unicode="j" horiz-adv-x="436" 
d="M217 1296q39 0 63.5 -24.5t24.5 -63.5q0 -41 -25 -64.5t-65 -23.5t-64 24t-24 64t25 64t65 24zM145 938h146v-932q0 -140 -79.5 -224.5t-213.5 -84.5q-149 0 -252 27l25 94q14 -4 36 -6.5t38.5 -3.5t52 -2.5t49.5 -2.5q103 0 150.5 49.5t47.5 151.5v934z" />
    <glyph glyph-name="k" unicode="k" horiz-adv-x="868" 
d="M145 1358h146v-828q22 19 76.5 63t77 63t64 58t63.5 67.5t48.5 70t45.5 86.5h151q-8 -17 -23.5 -53.5t-24.5 -53.5t-26 -44.5t-39 -51t-53 -47.5q-22 -20 -107.5 -83.5t-123.5 -94.5l444 -510h-164l-409 485v-485h-146v1358z" />
    <glyph glyph-name="l" unicode="l" horiz-adv-x="436" 
d="M291 0h-146v1391l146 32v-1423z" />
    <glyph glyph-name="m" unicode="m" horiz-adv-x="1474" 
d="M1118 958q234 0 234 -321v-637h-144q-2 233 -2 672q0 81 -39 128.5t-112 47.5q-126 0 -234 -125q4 -58 4 -92v-631h-145v666q0 85 -40 133.5t-118 48.5q-122 0 -231 -125v-723h-146v938h138l8 -117q137 137 293 137q153 0 209 -157q78 78 154 117.5t171 39.5z" />
    <glyph glyph-name="n" unicode="n" horiz-adv-x="972" 
d="M281 938l6 -104q130 124 301 124q60 0 107 -17.5t75 -45t46.5 -66t25 -76.5t6.5 -81v-672h-141v676q0 72 -36.5 119t-103.5 47q-160 0 -276 -119v-723h-146v938h136z" />
    <glyph glyph-name="o" unicode="o" horiz-adv-x="980" 
d="M240 467q0 -58 6.5 -109.5t23.5 -104t44.5 -89.5t73.5 -60.5t106 -23.5q58 0 102.5 24t71.5 61.5t44 90t23 103.5t6 108q0 70 -11 133t-36.5 124t-76.5 97.5t-123 36.5q-60 0 -106 -24.5t-73 -63t-44.5 -92t-24 -104.5t-6.5 -107zM84 467q0 102 23.5 188.5t71 155.5
t128.5 108t187 39q84 0 152.5 -26.5t114.5 -71.5t77 -108t45 -134t14 -151q0 -100 -23 -185.5t-70 -154t-126.5 -108t-183.5 -39.5q-105 0 -185.5 38.5t-128.5 106.5t-72 154t-24 188z" />
    <glyph glyph-name="p" unicode="p" horiz-adv-x="976" 
d="M737 467q0 50 -3 91.5t-10 87.5t-22 80.5t-36.5 63.5t-55.5 44.5t-78 15.5q-67 0 -119 -14.5t-122 -47.5v-606q64 -44 117 -69t110 -25q219 0 219 379zM893 471q0 -71 -8.5 -135t-32.5 -131t-61.5 -115t-100 -79t-143.5 -31q-70 0 -128.5 24t-127.5 72v-428h-146v1290
h131l11 -57q71 39 127.5 58t134.5 19q80 0 141.5 -30.5t99 -78.5t61.5 -114t33 -130t9 -134z" />
    <glyph glyph-name="q" unicode="q" horiz-adv-x="976" 
d="M240 467q0 -379 219 -379q57 0 110 25t117 69v606q-69 33 -122 47.5t-120 14.5q-44 0 -77.5 -15.5t-55.5 -44.5t-36.5 -63.5t-21.5 -80.5t-10 -87.5t-3 -91.5zM84 471q0 70 9 134t33 130t61.5 114t99 78.5t141.5 30.5q78 0 134.5 -19t127.5 -58l10 57h131v-1290h-145v428
q-69 -48 -127.5 -72t-128.5 -24q-81 0 -143.5 31t-100 79t-61.5 115t-32.5 131t-8.5 135z" />
    <glyph glyph-name="r" unicode="r" horiz-adv-x="667" 
d="M145 0v938h146v-203q14 54 36.5 93.5t49 63t62 37.5t69.5 18.5t78 4.5q17 0 38.5 -3.5t28.5 -4.5l-12 -121q-47 8 -104 8q-63 0 -109.5 -21.5t-72 -54t-40.5 -82.5t-19.5 -95.5t-4.5 -104.5v-473h-146z" />
    <glyph glyph-name="s" unicode="s" horiz-adv-x="790" 
d="M692 920l-20 -93q-141 25 -252 25q-84 0 -137.5 -30t-53.5 -91q0 -33 27 -63.5t70.5 -56.5t96 -53.5t105 -59.5t96 -68t70.5 -85.5t27 -106.5q0 -67 -28.5 -118.5t-76.5 -81t-105.5 -44t-121.5 -14.5q-154 0 -328 51l27 90q175 -35 285 -35q51 0 95 11.5t78 43.5t34 80
q0 57 -50 105t-121 85t-142 76t-121 95.5t-50 126.5q0 117 83.5 183t211.5 66q104 0 163 -7.5t138 -30.5z" />
    <glyph glyph-name="t" unicode="t" horiz-adv-x="610" 
d="M592 831h-307v-573q0 -168 135 -168q56 0 162 27l26 -97q-144 -34 -215 -34q-134 0 -195 80.5t-61 238.5v526h-112v107h116v221l144 39v-260h307v-107z" />
    <glyph glyph-name="u" unicode="u" horiz-adv-x="972" 
d="M686 80q-82 -47 -152 -73.5t-149 -26.5q-60 0 -107 17.5t-75 45t-46.5 66t-25 76.5t-6.5 81v672h141v-676q0 -72 36.5 -119t103.5 -47q176 0 276 74v768h145v-938h-133z" />
    <glyph glyph-name="v" unicode="v" horiz-adv-x="854" 
d="M360 0l-329 938h143l258 -758l254 758h135l-315 -938h-146z" />
    <glyph glyph-name="w" unicode="w" horiz-adv-x="1214" 
d="M233 0l-196 938h139l143 -762l226 762h127l223 -762l143 762h140l-197 -938h-154l-219 731l-221 -731h-154z" />
    <glyph glyph-name="x" unicode="x" horiz-adv-x="847" 
d="M174 0h-154l332 502l-289 436h146l215 -336l211 336h149l-282 -440l323 -498h-147l-250 397z" />
    <glyph glyph-name="y" unicode="y" horiz-adv-x="833" 
d="M428 152l234 786h137l-285 -940q-44 -182 -124 -259t-220 -77q-14 0 -121 10l17 107l98 -6q27 0 44.5 2t44.5 14t46.5 34t41.5 65.5t38 105.5q1 2 -4 7.5t-16.5 25t-22.5 49.5l-307 862h141z" />
    <glyph glyph-name="z" unicode="z" horiz-adv-x="714" 
d="M496 831h-445v107h666l-490 -829h471v-109h-698z" />
    <glyph glyph-name="braceleft" unicode="{" horiz-adv-x="528" 
d="M535 1438v-84q-160 0 -160 -240v-31q0 -75 -8.5 -155.5t-28.5 -174t-64 -159.5t-106 -80q50 -11 89 -57.5t60.5 -107.5t35 -138t18 -138.5t4.5 -119.5v-35q0 -50 6.5 -88.5t22.5 -75t49.5 -56.5t81.5 -20v-84q-135 0 -219.5 93.5t-84.5 230.5q0 42 4.5 127.5t4.5 128.5
q0 45 -7 113q-8 104 -51.5 156t-142.5 71q201 47 201 379q0 40 -4.5 114t-4.5 107q0 138 84.5 231t219.5 93z" />
    <glyph glyph-name="bar" unicode="|" horiz-adv-x="514" 
d="M201 -410v1721h112v-1721h-112z" />
    <glyph glyph-name="braceright" unicode="}" horiz-adv-x="528" 
d="M-6 1354v84q135 0 219 -93t84 -231q0 -33 -4 -107t-4 -114q0 -66 7.5 -119.5t27 -110t61.5 -95.5t104 -54q-99 -19 -142.5 -71t-51.5 -156q-6 -58 -6 -113q0 -43 4 -128.5t4 -127.5q0 -137 -84 -230.5t-219 -93.5v84q48 0 81.5 20t49.5 56.5t22.5 75t6.5 88.5v35
q0 58 4.5 119t18 138.5t35 138.5t60 107.5t88.5 57.5q-50 11 -88.5 59t-60 109.5t-35 140t-18 140.5t-4.5 120v31q0 240 -160 240z" />
    <glyph glyph-name="asciitilde" unicode="~" horiz-adv-x="985" 
d="M147 604h-84q0 52 11 98.5t36 90.5t74 70t117 26q47 0 92.5 -21t81.5 -51t69.5 -60.5t68.5 -51.5t67 -21q44 0 74.5 19t45.5 52t21 65t6 69h84q0 -43 -6 -81.5t-22.5 -77.5t-41.5 -67t-65.5 -45.5t-93.5 -17.5q-48 0 -93.5 21.5t-81 52t-68.5 60.5t-68.5 51.5t-69.5 21.5
q-45 0 -77 -20t-48 -53t-22.5 -65t-6.5 -65z" />
    <glyph glyph-name="uni00A0" unicode="&#xa0;" horiz-adv-x="876" 
 />
    <glyph glyph-name="exclamdown" unicode="&#xa1;" horiz-adv-x="485" 
d="M326 -356h-158l22 1013h115zM250 956q40 0 67 -25.5t27 -66.5t-26 -66.5t-66 -25.5q-42 0 -68 25t-26 67q0 40 25.5 66t66.5 26z" />
    <glyph glyph-name="cent" unicode="&#xa2;" horiz-adv-x="841" 
d="M776 918l-18 -91q-142 24 -199 27v-772q117 6 215 37l27 -94q-130 -33 -242 -41v-170h-63v166h-37q-80 0 -144 28t-106.5 74.5t-71 110t-41 131.5t-12.5 143q0 77 12 146.5t40 133.5t71 110t108.5 73.5t147.5 27.5h33v103h63v-107q114 -9 217 -36zM240 467q0 -66 10 -128
t33.5 -123.5t69.5 -98.5t110 -37h33v778h-31q-53 0 -94 -26.5t-65 -67.5t-39.5 -95t-21 -103t-5.5 -99z" />
    <glyph glyph-name="sterling" unicode="&#xa3;" horiz-adv-x="1095" 
d="M254 575l-174 3v92h160q-11 125 -11 225q0 199 88 297t275 98q122 0 206.5 -27t192.5 -102l-57 -90q-90 59 -162.5 81t-179.5 22q-56 0 -97.5 -24.5t-64 -67.5t-33 -93t-10.5 -108q0 -127 10 -211h361v-92h-352q10 -108 10 -172q0 -180 -111 -291h699v-115h-834l-37 117
q61 42 99 116.5t38 169.5q0 68 -16 172z" />
    <glyph glyph-name="currency" unicode="&#xa4;" horiz-adv-x="1193" 
d="M215 29l-90 88l139 139q-74 99 -74 246t74 246l-151 155l88 88l157 -162q98 70 242 70q140 0 238 -70l155 154l88 -88l-151 -150q76 -107 76 -243q0 -145 -74 -244l139 -137l-88 -88l-143 141q-98 -70 -240 -70q-147 0 -242 68zM289 502q0 -137 77 -223t234 -86
q154 0 230.5 86t76.5 223q0 62 -18 116t-53.5 98t-96 69.5t-139.5 25.5q-80 0 -141.5 -25t-97.5 -69t-54 -98t-18 -117z" />
    <glyph glyph-name="yen" unicode="&#xa5;" horiz-adv-x="937" 
d="M143 481v80h248v47l-379 660h158l299 -523l299 523h156l-379 -660v-47h248v-80h-248v-176h248v-82h-248v-223h-154v223h-248v82h248v176h-248z" />
    <glyph glyph-name="brokenbar" unicode="&#xa6;" horiz-adv-x="417" 
d="M150 680v756h116v-756h-116zM266 -457h-116v795h116v-795z" />
    <glyph glyph-name="section" unicode="&#xa7;" horiz-adv-x="1193" 
d="M279 610q0 -64 45 -120t114 -98t141.5 -80t139 -83t94.5 -90q47 19 74.5 61t27.5 95q0 69 -36.5 123t-97.5 93.5t-127 73.5t-140 81.5t-121 99.5q-114 -42 -114 -156zM1036 1229l-41 -103q-138 54 -299 54q-100 0 -165.5 -46.5t-65.5 -140.5q0 -60 34.5 -109.5t89 -85.5
t121 -70.5t133 -73.5t121 -84t89 -112t34.5 -149q0 -110 -54.5 -184.5t-145.5 -112.5q14 -44 14 -86q0 -150 -106.5 -234.5t-280.5 -92.5q-37 -2 -111 -2q-135 3 -311 41q5 17 17.5 52.5t17.5 53.5q130 -41 289 -41q153 0 236 50.5t83 168.5q0 50 -34.5 95t-89 80.5t-121 72
t-133 78t-121 88t-89 112t-34.5 142.5q0 105 56 176.5t150 105.5q-20 44 -20 101q0 64 21.5 117.5t58.5 90t87.5 61.5t106.5 36.5t117 11.5q189 0 346 -61z" />
    <glyph glyph-name="dieresis" unicode="&#xa8;" horiz-adv-x="497" 
d="M168 1380q0 -29 -18.5 -47t-47.5 -18t-46 18.5t-17 48.5q0 28 17.5 46t45.5 18q30 0 48 -18t18 -48zM459 1380q0 -29 -18.5 -47t-47.5 -18t-46 18.5t-17 48.5q0 28 17.5 46t45.5 18q30 0 48 -18t18 -48z" />
    <glyph glyph-name="copyright" unicode="&#xa9;" horiz-adv-x="1599" 
d="M66 565q0 330 201.5 531.5t531.5 201.5q331 0 533 -201.5t202 -531.5q0 -333 -201 -534t-534 -201q-332 0 -532.5 201t-200.5 534zM164 565q0 -300 168.5 -468.5t466.5 -168.5q300 0 469.5 168t169.5 469q0 296 -170.5 465.5t-468.5 169.5q-296 0 -465.5 -169.5
t-169.5 -465.5zM1032 936l-16 -76q-142 27 -242 27q-44 0 -77.5 -22t-53.5 -56t-33 -79t-17.5 -85.5t-4.5 -81.5q0 -54 8.5 -105t28 -101.5t57.5 -81.5t90 -31q149 0 258 32l21 -77q-145 -37 -281 -37q-82 0 -144 34.5t-97.5 93t-52.5 127.5t-17 146q0 81 16.5 150.5
t52 128.5t98 93t146.5 34q139 0 260 -33z" />
    <glyph glyph-name="ordfeminine" unicode="&#xaa;" horiz-adv-x="575" 
d="M389 803v205q-137 -30 -194.5 -62t-57.5 -100q0 -43 24 -69.5t64 -26.5q82 0 164 53zM119 1194l-15 57q128 31 193 31q100 0 140 -52t40 -153v-385h-84l-2 62q-51 -38 -91 -55t-93 -17q-72 0 -114 46t-42 118q0 31 9 56t22.5 43.5t39.5 34.5t49.5 27t64 22.5t71 18
t82.5 17.5q0 87 -20.5 118t-83.5 31q-33 0 -166 -20z" />
    <glyph glyph-name="guillemotleft" unicode="&#xab;" horiz-adv-x="745" 
d="M373 492l229 452l51 -24l-178 -428l178 -426l-51 -25zM102 492l230 454l57 -24l-184 -430l180 -426l-51 -25z" />
    <glyph glyph-name="logicalnot" unicode="&#xac;" horiz-adv-x="1101" 
d="M139 1270h789v-348h-101v231h-688v117z" />
    <glyph glyph-name="uni00AD" unicode="&#xad;" horiz-adv-x="600" 
d="M508 438h-416v88h416v-88z" />
    <glyph glyph-name="registered" unicode="&#xae;" horiz-adv-x="1599" 
d="M66 565q0 330 201.5 531.5t531.5 201.5q331 0 533 -201.5t202 -531.5q0 -333 -201 -534t-534 -201q-332 0 -532.5 201t-200.5 534zM164 565q0 -300 168.5 -468.5t466.5 -168.5q300 0 469.5 168t169.5 469q0 296 -170.5 465.5t-468.5 169.5q-296 0 -465.5 -169.5
t-169.5 -465.5zM637 895v-334h184q142 0 142 180q0 70 -34.5 112t-107.5 42h-184zM995 170l-211 317h-147v-317h-98v797h252q130 0 201 -50t71 -180q0 -96 -41.5 -161t-130.5 -78l219 -328h-115z" />
    <glyph glyph-name="degree" unicode="&#xb0;" horiz-adv-x="587" 
d="M154 1116q0 -47 23.5 -79.5t74.5 -32.5t73.5 32t22.5 80t-22.5 80.5t-73.5 32.5t-74.5 -32.5t-23.5 -80.5zM84 1116q0 78 41.5 126t126.5 48t126.5 -48.5t41.5 -125.5t-41.5 -124.5t-126.5 -47.5t-126.5 47.5t-41.5 124.5z" />
    <glyph glyph-name="plusminus" unicode="&#xb1;" horiz-adv-x="1040" 
d="M129 705h334v294h112v-294h332v-91h-332v-323h-112v323h-334v91zM891 39h-741v90h741v-90z" />
    <glyph glyph-name="uni00B2" unicode="&#xb2;" horiz-adv-x="526" 
d="M156 1178l-11 -72h-55v106q55 36 90.5 49t93.5 13q73 0 129 -49.5t56 -122.5q0 -30 -16.5 -68t-51 -84t-54 -69t-56.5 -66l-80 -88h266v-65h-406l132 151q52 60 73 85t55.5 71t48 76.5t13.5 56.5q0 45 -32.5 76.5t-76.5 31.5q-77 0 -118 -32z" />
    <glyph glyph-name="uni00B3" unicode="&#xb3;" horiz-adv-x="505" 
d="M57 700l33 60q41 -22 73.5 -29.5t80.5 -7.5q56 0 91.5 31t35.5 86q0 56 -36 86t-93 30v54q49 0 83.5 22.5t34.5 69.5q0 50 -33 77t-83 27q-47 0 -103 -32l-6 -70h-53v117q100 53 162 53q79 0 135.5 -43t56.5 -121q0 -45 -26.5 -80t-65.5 -47q47 -13 74.5 -53t27.5 -92
q0 -88 -56.5 -135.5t-145.5 -47.5q-57 0 -97.5 9.5t-89.5 35.5z" />
    <glyph glyph-name="acute" unicode="&#xb4;" horiz-adv-x="526" 
d="M440 1270l-250 -260h-55l182 260h123z" />
    <glyph glyph-name="uni00B5" unicode="&#xb5;" horiz-adv-x="972" 
d="M686 80q-82 -47 -152 -73.5t-149 -26.5q-67 0 -117 40v-460h-145v1378h145v-709q8 -60 43 -96.5t95 -36.5q176 0 276 74v768h145v-938h-133z" />
    <glyph glyph-name="paragraph" unicode="&#xb6;" horiz-adv-x="1239" 
d="M573 1270h543v-119h-117v-1548h-84v1548h-264v-1548h-84v909q-218 0 -320 90t-102 279q0 186 105.5 287.5t322.5 101.5z" />
    <glyph glyph-name="periodcentered" unicode="&#xb7;" horiz-adv-x="585" 
d="M293 545q-51 0 -86 35t-35 86q0 50 35.5 84t85.5 34q51 0 86 -34t35 -84q0 -51 -35.5 -86t-85.5 -35z" />
    <glyph glyph-name="cedilla" unicode="&#xb8;" horiz-adv-x="534" 
d="M209 -147l24 149h62l-19 -96q60 -2 111 -43t51 -99q0 -78 -54.5 -116.5t-129.5 -38.5q-65 0 -172 35l16 61q75 -16 144 -16q43 0 73.5 18.5t30.5 59.5t-40 63.5t-87 22.5h-10z" />
    <glyph glyph-name="uni00B9" unicode="&#xb9;" horiz-adv-x="346" 
d="M55 1053l-32 57q99 60 170 162h65v-615h-78v517q-34 -50 -57.5 -74t-67.5 -47z" />
    <glyph glyph-name="ordmasculine" unicode="&#xba;" horiz-adv-x="581" 
d="M129 981q0 -250 164 -250q160 0 160 250t-160 250q-164 0 -164 -250zM53 981q0 62 13 114.5t40 96t75 68t112 24.5q84 0 138.5 -44.5t75.5 -109.5t21 -149t-21 -148.5t-75.5 -108.5t-138.5 -44q-124 0 -182 85.5t-58 215.5z" />
    <glyph glyph-name="guillemotright" unicode="&#xbb;" horiz-adv-x="745" 
d="M141 944l232 -452l-221 -451l-60 25l178 426l-178 428zM410 942l231 -450l-231 -451l-48 22l177 429l-177 430z" />
    <glyph glyph-name="onequarter" unicode="&#xbc;" horiz-adv-x="1241" 
d="M887 637l71 -14l-12 -66q-4 -23 -10 -45.5t-11.5 -39.5t-16.5 -40t-17 -35.5t-21 -38t-20.5 -34.5t-24.5 -38.5t-24 -37.5l-23 -29v-18h234v151h78v-352h-78v133h-322v78l29 43q72 110 109.5 189.5t58.5 193.5zM135 1053l-33 57q99 60 170 162h66v-615h-78v517
q-34 -50 -57.5 -74t-67.5 -47zM827 1294l70 -32l-582 -1291l-65 31z" />
    <glyph glyph-name="onehalf" unicode="&#xbd;" horiz-adv-x="1298" 
d="M834 543l-13 -76h-61v111q54 37 92 51t100 14q77 0 136 -52t59 -128q0 -32 -18 -72t-53 -86.5t-57.5 -73.5t-60.5 -69l-84 -92h281v-70h-426l137 160q12 14 42 49.5t42.5 50.5t36 44.5t34 46t23.5 39t18 40t5 33.5q0 47 -34.5 79.5t-80.5 32.5q-74 0 -118 -32zM827 1294
l70 -32l-582 -1291l-65 31zM135 1053l-33 57q99 60 170 162h66v-615h-78v502q-29 -43 -51 -61t-74 -45z" />
    <glyph glyph-name="threequarters" unicode="&#xbe;" horiz-adv-x="1222" 
d="M74 700l32 60q41 -22 73.5 -29.5t80.5 -7.5q56 0 91.5 31t35.5 86q0 56 -36 86t-93 30v54q49 0 84 22.5t35 69.5q0 50 -33.5 77t-83.5 27q-44 0 -100 -32l-6 -70h-54v117q100 53 160 53q79 0 136 -43.5t57 -120.5q0 -44 -26.5 -79.5t-66.5 -47.5q47 -13 75 -53.5
t28 -91.5q0 -87 -57 -135t-146 -48q-56 0 -96.5 9.5t-89.5 35.5zM838 1294l69 -32l-581 -1291l-66 31zM887 637l71 -14l-12 -66q-4 -23 -10 -45.5t-11.5 -39.5t-16.5 -40t-17 -35.5t-21 -38t-20.5 -34.5t-24.5 -38.5t-24 -37.5l-23 -29v-18h234v151h78v-352h-78v133h-322v78
l29 43q72 110 109.5 189.5t58.5 193.5z" />
    <glyph glyph-name="questiondown" unicode="&#xbf;" horiz-adv-x="968" 
d="M727 352l121 15q2 -16 2 -50q0 -149 -102.5 -246.5t-258.5 -97.5q-164 0 -272 97t-108 256q0 71 32 138t77.5 120.5t91.5 105t78 111.5t32 119h135v-9q0 -67 -29.5 -130t-72 -114t-84.5 -102.5t-71.5 -117t-29.5 -136.5q0 -81 66.5 -141.5t154.5 -60.5q111 0 174.5 67
t63.5 176zM487 1294q40 0 66.5 -26t26.5 -66q0 -42 -27 -67t-68 -25t-66.5 25.5t-25.5 66.5t26.5 66.5t67.5 25.5z" />
    <glyph glyph-name="Agrave" unicode="&#xc0;" horiz-adv-x="1050" 
d="M291 377h469l-234 694zM1036 0h-147l-90 260h-547l-92 -260h-146l443 1270h141zM610 1360l-229 313h149l138 -280z" />
    <glyph glyph-name="Aacute" unicode="&#xc1;" horiz-adv-x="1050" 
d="M291 377h469l-234 694zM1036 0h-147l-90 260h-547l-92 -260h-146l443 1270h141zM387 1384l129 285h146l-240 -307z" />
    <glyph glyph-name="Acircumflex" unicode="&#xc2;" horiz-adv-x="1050" 
d="M291 377h469l-234 694zM1036 0h-147l-90 260h-547l-92 -260h-146l443 1270h141zM526 1561l-161 -187h-70l197 283h71l193 -285h-72z" />
    <glyph glyph-name="Atilde" unicode="&#xc3;" horiz-adv-x="1050" 
d="M291 377h469l-234 694zM1036 0h-147l-90 260h-547l-92 -260h-146l443 1270h141zM334 1442l-66 18q17 67 52.5 114.5t93.5 47.5q35 0 62.5 -13t45.5 -32t34.5 -37.5t36 -31.5t42.5 -13q51 0 80 94l65 -20q-11 -32 -21.5 -56t-28 -50.5t-42 -41t-55.5 -14.5q-37 0 -70.5 20
t-53.5 43.5t-46 43.5t-51 20q-54 0 -78 -92z" />
    <glyph glyph-name="Adieresis" unicode="&#xc4;" horiz-adv-x="1050" 
d="M291 377h469l-234 694zM1036 0h-147l-90 260h-547l-92 -260h-146l443 1270h141zM442 1513q0 -29 -17.5 -47t-45.5 -18q-30 0 -48 19t-18 49q0 28 18.5 45.5t47.5 17.5t46 -18t17 -48zM733 1513q0 -29 -17.5 -47t-45.5 -18q-30 0 -48 19t-18 49q0 28 18.5 45.5t47.5 17.5
t46 -18t17 -48z" />
    <glyph glyph-name="Aring" unicode="&#xc5;" horiz-adv-x="1050" 
d="M430 1376q0 -40 27.5 -69t68.5 -29q39 0 67 29.5t28 68.5q0 40 -28 69.5t-67 29.5t-67.5 -29.5t-28.5 -69.5zM291 377h469l-234 694zM1036 0h-147l-90 260h-547l-92 -260h-146l437 1253q-35 15 -56.5 49.5t-21.5 75.5q0 63 45 107.5t108 44.5t107.5 -44.5t44.5 -107.5
q0 -40 -21 -74t-55 -49z" />
    <glyph glyph-name="AE" unicode="&#xc6;" horiz-adv-x="1536" 
d="M332 377h434v774h-84zM604 1268h860v-117h-544v-418h393v-117h-393v-499h585v-117h-739v260h-492l-127 -260h-149z" />
    <glyph glyph-name="Ccedilla" unicode="&#xc7;" horiz-adv-x="1003" 
d="M936 133l29 -113q-214 -36 -338 -38q-20 -2 -62 -2l-18 -89q61 -2 111.5 -42t50.5 -99q0 -78 -54 -117t-129 -39q-69 0 -172 35l15 62q80 -17 143 -17q44 0 74 18.5t30 59.5t-39 63.5t-85 22.5h-11l23 148q-96 8 -169.5 49.5t-118.5 103t-73.5 145.5t-39.5 168.5
t-11 182.5q0 105 12.5 194.5t45.5 177t85.5 148t138 98t197.5 37.5q108 0 191.5 -16t175.5 -57l-45 -105q-81 36 -150.5 49t-164.5 13q-78 0 -137.5 -35.5t-93.5 -89.5t-55.5 -129.5t-28.5 -143t-7 -141.5q0 -76 6.5 -143.5t27.5 -143t55 -129.5t93 -89.5t137 -35.5
q149 0 361 39z" />
    <glyph glyph-name="Egrave" unicode="&#xc8;" horiz-adv-x="962" 
d="M891 1270v-117h-580v-420h428v-117h-428v-501h621v-115h-774v1270h733zM408 1673h149l137 -280l-57 -33z" />
    <glyph glyph-name="Eacute" unicode="&#xc9;" horiz-adv-x="962" 
d="M893 1268v-115h-582v-422h430v-115h-430v-501h623v-115h-776v1268h735zM545 1669h145l-239 -307l-37 22z" />
    <glyph glyph-name="Ecircumflex" unicode="&#xca;" horiz-adv-x="962" 
d="M893 1268v-115h-582v-422h430v-115h-430v-501h623v-115h-776v1268h735zM393 1374h-69l196 283h70l192 -285h-71l-156 189z" />
    <glyph glyph-name="Edieresis" unicode="&#xcb;" horiz-adv-x="962" 
d="M893 1268v-115h-582v-422h430v-115h-430v-501h623v-115h-776v1268h735zM471 1513q0 -29 -17.5 -47t-45.5 -18q-30 0 -48 19t-18 49q0 28 18.5 45.5t47.5 17.5t46 -18t17 -48zM762 1513q0 -29 -18 -47t-46 -18q-30 0 -47.5 19t-17.5 49q0 28 18 45.5t47 17.5t46.5 -18.5
t17.5 -47.5z" />
    <glyph glyph-name="Igrave" unicode="&#xcc;" horiz-adv-x="468" 
d="M158 1270h153v-1270h-153v1270zM92 1673h150l137 -280l-57 -33z" />
    <glyph glyph-name="Iacute" unicode="&#xcd;" horiz-adv-x="468" 
d="M158 1270h153v-1270h-153v1270zM227 1669h146l-240 -307l-35 22z" />
    <glyph glyph-name="Icircumflex" unicode="&#xce;" horiz-adv-x="468" 
d="M158 1270h153v-1270h-153v1270zM76 1374h-70l197 283h69l193 -285h-72l-155 189z" />
    <glyph glyph-name="Idieresis" unicode="&#xcf;" horiz-adv-x="468" 
d="M158 0v1270h153v-1270h-153zM154 1513q0 -29 -18 -47t-46 -18q-30 0 -47.5 19t-17.5 49q0 28 18 45.5t47 17.5t46.5 -18.5t17.5 -47.5zM444 1513q0 -29 -17.5 -47t-45.5 -18q-30 0 -48 19t-18 49q0 28 18.5 45.5t47.5 17.5t46 -18t17 -48z" />
    <glyph glyph-name="Eth" unicode="&#xd0;" horiz-adv-x="1165" 
d="M309 604v-489h312q59 0 106 23t77 65t51 92t32 112.5t15.5 118.5t4.5 117q0 510 -286 510h-312v-467h301v-82h-301zM156 0v604h-127v82h127v584h471q87 0 157.5 -25t118 -71.5t81.5 -105t52.5 -132t26.5 -146.5t8 -155q0 -100 -12.5 -187.5t-44 -171.5t-80.5 -143.5
t-127.5 -96t-179.5 -36.5h-471z" />
    <glyph glyph-name="Ntilde" unicode="&#xd1;" horiz-adv-x="1165" 
d="M393 1442l-67 18q17 67 52 114.5t93 47.5q43 0 76.5 -20t51 -43.5t42 -43.5t51.5 -20q56 0 80 94l66 -20q-46 -162 -146 -162q-38 0 -71.5 20t-53.5 43.5t-46 43.5t-50 20q-32 0 -51.5 -28t-26.5 -64zM293 1020v-1020h-137v1268h151l567 -1063v1063h136v-1268h-164z" />
    <glyph glyph-name="Ograve" unicode="&#xd2;" horiz-adv-x="1218" 
d="M256 635q0 -80 8 -149.5t31 -144.5t61 -128t103 -87t151 -34t151 34.5t102.5 87.5t61 128t31 144.5t7.5 148.5t-7.5 147.5t-31 143.5t-61 127.5t-102.5 86.5t-151 34q-72 0 -129.5 -22.5t-95.5 -64t-64 -92t-40 -114.5t-19.5 -122.5t-5.5 -123.5zM92 635q0 106 16.5 199
t55.5 178t97 145.5t147.5 96.5t201.5 36t201 -36t147 -97t96.5 -146.5t55 -178t16.5 -197.5t-16.5 -198t-55 -178t-96.5 -146t-147 -97t-201 -36t-201.5 36t-147.5 96.5t-97 145.5t-55.5 178t-16.5 199zM467 1702h147l140 -281l-60 -32z" />
    <glyph glyph-name="Oacute" unicode="&#xd3;" horiz-adv-x="1216" 
d="M256 633q0 -541 354 -541q86 0 151 34.5t102 87t60 128t30.5 144t7.5 147.5q0 65 -5.5 123t-19 121.5t-39.5 114t-63.5 92t-94.5 64.5t-129 23q-354 0 -354 -538zM92 633q0 106 16.5 199t55.5 178t97 145.5t147.5 96.5t201.5 36q111 0 200 -36t147 -97t96 -146t54.5 -178
t16.5 -198t-16.5 -197.5t-54.5 -178t-96 -146.5t-147 -97.5t-200 -36.5q-112 0 -201.5 36t-147.5 97t-97 146t-55.5 178t-16.5 199zM602 1669h146l-240 -307l-37 22z" />
    <glyph glyph-name="Ocircumflex" unicode="&#xd4;" horiz-adv-x="1220" 
d="M256 633q0 -56 3.5 -106t14 -106t27 -102.5t44 -90t63.5 -73t87.5 -47.5t114.5 -18q86 0 151 34.5t102 87.5t60 128t30.5 144t7.5 149q0 55 -3.5 104.5t-14 105t-27 101.5t-44 89t-63 73t-86.5 47.5t-113 17.5q-354 0 -354 -538zM92 633q0 106 16.5 199t55.5 178
t97 145.5t147.5 96.5t201.5 36q111 0 200 -36t147 -97.5t96 -146.5t54.5 -177.5t16.5 -197.5t-16.5 -198t-54.5 -178.5t-96 -146.5t-147 -97t-200 -36q-112 0 -201.5 36t-147.5 97t-97 146t-55.5 178t-16.5 199zM451 1374h-70l197 283h69l193 -285h-72l-156 189z" />
    <glyph glyph-name="Otilde" unicode="&#xd5;" horiz-adv-x="1218" 
d="M256 633q0 -541 354 -541q86 0 151 34.5t102 87t60 128t30.5 144t7.5 147.5q0 65 -5.5 123t-19 121.5t-39.5 114t-63.5 92t-94.5 64.5t-129 23q-354 0 -354 -538zM92 633q0 106 16.5 199t55.5 178t97 145.5t147.5 96.5t201.5 36q111 0 200 -36t147 -97t96 -146t54.5 -178
t16.5 -198t-16.5 -197.5t-54.5 -178t-96 -146.5t-147 -97.5t-200 -36.5q-112 0 -201.5 36t-147.5 97t-97 146t-55.5 178t-16.5 199zM420 1442l-68 18q17 67 52.5 114.5t93.5 47.5q43 0 76.5 -20t51 -43.5t42 -43.5t51.5 -20q56 0 80 94l65 -20q-46 -162 -145 -162
q-38 0 -71.5 20t-53.5 43.5t-46 43.5t-50 20q-32 0 -51.5 -28t-26.5 -64z" />
    <glyph glyph-name="Odieresis" unicode="&#xd6;" horiz-adv-x="1218" 
d="M256 633q0 -56 3.5 -106t14 -106t27 -102.5t44 -90t63.5 -73t87.5 -47.5t114.5 -18q86 0 151 34.5t102 87.5t60 128t30.5 144t7.5 149q0 55 -3.5 104.5t-14 105t-27 101.5t-44 89t-63 73t-86.5 47.5t-113 17.5q-354 0 -354 -538zM92 633q0 106 16.5 199t55.5 178
t97 145.5t147.5 96.5t201.5 36q111 0 200 -36t147 -97.5t96 -146.5t54.5 -177.5t16.5 -197.5t-16.5 -198t-54.5 -178.5t-96 -146.5t-147 -97t-200 -36q-112 0 -201.5 36t-147.5 97t-97 146t-55.5 178t-16.5 199zM528 1513q0 -29 -18 -47t-47 -18t-46.5 19t-17.5 49
q0 28 18 45.5t46 17.5q30 0 47.5 -18t17.5 -48zM819 1513q0 -29 -18 -47t-47 -18t-46.5 19t-17.5 49q0 28 18 45.5t46 17.5q30 0 47.5 -18t17.5 -48z" />
    <glyph glyph-name="multiply" unicode="&#xd7;" horiz-adv-x="897" 
d="M121 840l63 63l262 -264l263 264l63 -63l-262 -265l266 -266l-63 -63l-267 266l-266 -266l-63 63l266 266z" />
    <glyph glyph-name="Oslash" unicode="&#xd8;" horiz-adv-x="1222" 
d="M92 633q0 106 16.5 199t55.5 178t97 145.5t147.5 96.5t201.5 36q211 0 340 -129l94 121l95 -80l-113 -141q98 -167 98 -426q0 -105 -16.5 -198t-54.5 -178.5t-96 -146.5t-147 -97t-200 -36q-211 0 -342 125l-88 -112l-96 80l106 133q-98 167 -98 430zM256 633
q0 -181 39 -299l567 715q-87 122 -252 122q-354 0 -354 -538zM961 633q0 169 -39 293l-568 -715q87 -121 256 -121q86 0 151 34.5t102 87.5t60 128t30.5 144t7.5 149z" />
    <glyph glyph-name="Ugrave" unicode="&#xd9;" horiz-adv-x="1173" 
d="M446 1673h148l139 -280l-59 -33zM145 1270h156v-930q0 -127 79 -187.5t210 -60.5q128 0 205 61t77 185v932h156v-928q0 -95 -34.5 -167t-96 -114.5t-138.5 -63t-169 -20.5q-93 0 -170.5 20t-140.5 61.5t-98.5 113.5t-35.5 168v930z" />
    <glyph glyph-name="Uacute" unicode="&#xda;" horiz-adv-x="1173" 
d="M582 1669h145l-240 -307l-36 22zM145 1270h156v-930q0 -127 79 -187.5t210 -60.5q128 0 205 61t77 185v932h156v-928q0 -95 -34.5 -167t-96 -114.5t-138.5 -63t-169 -20.5q-93 0 -170.5 20t-140.5 61.5t-98.5 113.5t-35.5 168v930z" />
    <glyph glyph-name="Ucircumflex" unicode="&#xdb;" horiz-adv-x="1173" 
d="M430 1374h-70l197 283h70l192 -285h-71l-156 189zM145 1270h156v-930q0 -127 79 -187.5t210 -60.5q128 0 205 61t77 185v932h156v-928q0 -95 -34.5 -167t-96 -114.5t-138.5 -63t-169 -20.5q-93 0 -170.5 20t-140.5 61.5t-98.5 113.5t-35.5 168v930z" />
    <glyph glyph-name="Udieresis" unicode="&#xdc;" horiz-adv-x="1173" 
d="M145 1270h156v-930q0 -127 79 -187.5t210 -60.5q128 0 205 61t77 185v932h156v-928q0 -95 -34.5 -167t-96 -114.5t-138.5 -63t-169 -20.5q-93 0 -170.5 20t-140.5 61.5t-98.5 113.5t-35.5 168v930zM508 1513q0 -29 -18.5 -47t-47.5 -18t-46 19t-17 49q0 28 17.5 45.5
t45.5 17.5q30 0 48 -18t18 -48zM799 1513q0 -29 -18.5 -47t-47.5 -18t-46 19t-17 49q0 28 17.5 45.5t45.5 17.5q30 0 48 -18t18 -48z" />
    <glyph glyph-name="Yacute" unicode="&#xdd;" horiz-adv-x="937" 
d="M545 608v-608h-154v608l-379 662h158l299 -525l299 525h156zM461 1669h145l-239 -307l-37 22z" />
    <glyph glyph-name="Thorn" unicode="&#xde;" horiz-adv-x="1058" 
d="M156 0v1270h153v-238h305q182 0 278.5 -108t96.5 -291q0 -189 -95.5 -295.5t-281.5 -106.5h-303v-231h-153zM309 915v-567h303q60 0 104 24t67 66t33.5 90.5t10.5 106.5q0 57 -10.5 104.5t-34 88.5t-66.5 64t-102 23h-305z" />
    <glyph glyph-name="germandbls" unicode="&#xdf;" horiz-adv-x="1048" 
d="M293 938v-938h-146v854q0 68 2.5 118t10.5 104t22 92.5t38 74.5t57.5 57.5t81 34.5t108.5 13q138 0 231 -71t93 -190q0 -42 -26.5 -94t-52.5 -105.5t-26 -96.5q0 -30 16 -60.5t42 -58t57 -57t62.5 -63.5t57.5 -71.5t42 -87t16 -104.5q0 -146 -86 -232t-229 -86
q-67 0 -129.5 23t-92.5 61l60 80q21 -25 64 -40t81 -15q84 0 136.5 61t52.5 150q0 47 -15.5 89t-40.5 73.5t-55.5 61t-60.5 57t-55 55.5t-40.5 62.5t-15.5 72.5q0 54 25.5 115t51 116t25.5 97q0 66 -52 99.5t-136 33.5q-35 0 -63 -9t-46 -22.5t-31 -37.5t-19.5 -45
t-10 -54.5t-4 -56.5t-0.5 -60z" />
    <glyph glyph-name="agrave" unicode="&#xe0;" horiz-adv-x="888" 
d="M514 1051l-229 313h149l137 -279zM621 178v334q-74 -16 -122 -28.5t-100 -29.5t-82.5 -35t-56.5 -43t-37.5 -56.5t-11.5 -71.5q0 -71 40.5 -115.5t104.5 -44.5q131 0 265 90zM182 813l-22 96q192 49 315 49q162 0 226.5 -84t64.5 -249v-625h-137l-4 98q-80 -60 -147 -89
t-152 -29q-117 0 -185.5 75.5t-68.5 194.5q0 43 9.5 79t32 65.5t46.5 52t67 42.5t78 34t95.5 30t103.5 25.5t117 25.5q0 142 -33 194t-135 52q-21 0 -45.5 -2t-43.5 -4t-48.5 -7t-43.5 -7.5t-47.5 -8.5t-42.5 -8z" />
    <glyph glyph-name="aacute" unicode="&#xe1;" horiz-adv-x="888" 
d="M291 1077l131 285h145l-239 -307zM621 178v334q-74 -16 -122 -28.5t-100 -29.5t-82.5 -35t-56.5 -43t-37.5 -56.5t-11.5 -71.5q0 -71 40.5 -115.5t104.5 -44.5q131 0 265 90zM182 813l-22 96q192 49 315 49q162 0 226.5 -84t64.5 -249v-625h-137l-4 98q-80 -60 -147 -89
t-152 -29q-117 0 -185.5 75.5t-68.5 194.5q0 43 9.5 79t32 65.5t46.5 52t67 42.5t78 34t95.5 30t103.5 25.5t117 25.5q0 142 -33 194t-135 52q-21 0 -45.5 -2t-43.5 -4t-48.5 -7t-43.5 -7.5t-47.5 -8.5t-42.5 -8z" />
    <glyph glyph-name="acircumflex" unicode="&#xe2;" horiz-adv-x="888" 
d="M430 1253l-162 -186h-69l196 283h72l192 -285h-71zM621 178v334q-74 -16 -122 -28.5t-100 -29.5t-82.5 -35t-56.5 -43t-37.5 -56.5t-11.5 -71.5q0 -71 40.5 -115.5t104.5 -44.5q131 0 265 90zM182 813l-22 96q192 49 315 49q162 0 226.5 -84t64.5 -249v-625h-137l-4 98
q-80 -60 -147 -89t-152 -29q-117 0 -185.5 75.5t-68.5 194.5q0 43 9.5 79t32 65.5t46.5 52t67 42.5t78 34t95.5 30t103.5 25.5t117 25.5q0 142 -33 194t-135 52q-21 0 -45.5 -2t-43.5 -4t-48.5 -7t-43.5 -7.5t-47.5 -8.5t-42.5 -8z" />
    <glyph glyph-name="atilde" unicode="&#xe3;" horiz-adv-x="888" 
d="M248 1135l-68 18q17 67 52.5 114.5t93.5 47.5q43 0 76.5 -20t51 -43.5t42 -43.5t51.5 -20q56 0 80 94l65 -20q-46 -162 -145 -162q-38 0 -71.5 20t-53.5 43.5t-46 43.5t-50 20q-32 0 -51.5 -28t-26.5 -64zM621 178v334q-74 -16 -122 -28.5t-100 -29.5t-82.5 -35
t-56.5 -43t-37.5 -56.5t-11.5 -71.5q0 -71 40.5 -115.5t104.5 -44.5q131 0 265 90zM182 813l-22 96q192 49 315 49q162 0 226.5 -84t64.5 -249v-625h-137l-4 98q-80 -60 -147 -89t-152 -29q-117 0 -185.5 75.5t-68.5 194.5q0 43 9.5 79t32 65.5t46.5 52t67 42.5t78 34
t95.5 30t103.5 25.5t117 25.5q0 142 -33 194t-135 52q-21 0 -45.5 -2t-43.5 -4t-48.5 -7t-43.5 -7.5t-47.5 -8.5t-42.5 -8z" />
    <glyph glyph-name="adieresis" unicode="&#xe4;" horiz-adv-x="888" 
d="M348 1206q0 -29 -17.5 -47t-45.5 -18q-30 0 -48 18.5t-18 48.5q0 28 18.5 46t47.5 18t46 -18t17 -48zM639 1206q0 -29 -18 -47t-46 -18q-30 0 -47.5 18.5t-17.5 48.5q0 28 18 46t47 18t46.5 -18.5t17.5 -47.5zM621 178v334q-74 -16 -122 -28.5t-100 -29.5t-82.5 -35
t-56.5 -43t-37.5 -56.5t-11.5 -71.5q0 -71 40.5 -115.5t104.5 -44.5q131 0 265 90zM182 813l-22 96q192 49 315 49q162 0 226.5 -84t64.5 -249v-625h-137l-4 98q-80 -60 -147 -89t-152 -29q-117 0 -185.5 75.5t-68.5 194.5q0 43 9.5 79t32 65.5t46.5 52t67 42.5t78 34
t95.5 30t103.5 25.5t117 25.5q0 142 -33 194t-135 52q-21 0 -45.5 -2t-43.5 -4t-48.5 -7t-43.5 -7.5t-47.5 -8.5t-42.5 -8z" />
    <glyph glyph-name="aring" unicode="&#xe5;" horiz-adv-x="888" 
d="M334 1198q0 -40 28 -69t68 -29q39 0 66.5 29.5t27.5 68.5q0 40 -27.5 69t-66.5 29q-40 0 -68 -29t-28 -69zM276 1198q0 63 45.5 108.5t108.5 45.5t107.5 -45.5t44.5 -108.5q0 -64 -44 -109t-108 -45q-63 0 -108.5 45.5t-45.5 108.5zM621 178v334q-74 -16 -122 -28.5
t-100 -29.5t-82.5 -35t-56.5 -43t-37.5 -56.5t-11.5 -71.5q0 -71 40.5 -115.5t104.5 -44.5q131 0 265 90zM182 813l-22 96q192 49 315 49q162 0 226.5 -84t64.5 -249v-625h-137l-4 98q-80 -60 -147 -89t-152 -29q-117 0 -185.5 75.5t-68.5 194.5q0 43 9.5 79t32 65.5
t46.5 52t67 42.5t78 34t95.5 30t103.5 25.5t117 25.5q0 142 -33 194t-135 52q-21 0 -45.5 -2t-43.5 -4t-48.5 -7t-43.5 -7.5t-47.5 -8.5t-42.5 -8z" />
    <glyph glyph-name="ae" unicode="&#xe6;" horiz-adv-x="1488" 
d="M1403 422h-637q4 -342 258 -342q216 0 326 41l20 -92q-133 -49 -346 -49q-89 0 -151.5 27.5t-106.5 92.5l-41 60l-100 -78q-73 -55 -141 -78.5t-158 -23.5q-117 0 -185.5 75.5t-68.5 194.5q0 43 9.5 79t32 65.5t46.5 52t67 42.5t78 34t95.5 30t103.5 25.5t117 25.5
q0 142 -33 194t-135 52q-21 0 -45.5 -2t-43.5 -4t-48.5 -7t-43.5 -7.5t-47.5 -8.5t-42.5 -8l-22 96q192 49 315 49q188 0 244 -151q101 151 293 151q92 0 161.5 -28.5t112.5 -76.5t70 -118.5t37 -145.5t10 -167zM766 512h491q0 51 -6.5 97.5t-24 93t-44.5 80t-70.5 54.5
t-99.5 21q-70 0 -120 -31t-76 -84t-37.5 -109.5t-12.5 -121.5zM621 178v334q-74 -16 -122 -28.5t-100 -29.5t-82.5 -35t-56.5 -43t-37.5 -56.5t-11.5 -71.5q0 -71 40.5 -115.5t104.5 -44.5q131 0 265 90z" />
    <glyph glyph-name="ccedilla" unicode="&#xe7;" horiz-adv-x="819" 
d="M764 918l-23 -95q-140 35 -276 35q-53 0 -94 -26.5t-65 -67.5t-39.5 -95t-21 -103t-5.5 -99q0 -66 10 -128t33.5 -123.5t69.5 -98.5t110 -37q101 0 166 7.5t145 31.5l27 -94q-102 -24 -168 -34t-156 -11l-16 -82q61 -2 111.5 -41.5t50.5 -98.5q0 -79 -54.5 -117
t-128.5 -38q-81 0 -172 35l15 61q71 -18 143 -18q43 0 73.5 18.5t30.5 58.5q0 41 -39.5 64.5t-84.5 23.5h-11l23 136q-88 8 -154.5 52.5t-104.5 114t-56.5 149.5t-18.5 169q0 77 12 146.5t40 133.5t71 110t108.5 73.5t147.5 27.5q153 0 301 -40z" />
    <glyph glyph-name="egrave" unicode="&#xe8;" horiz-adv-x="964" 
d="M877 422h-637q4 -342 258 -342q149 0 311 59l33 -92q-182 -67 -346 -67q-107 0 -188 37.5t-129 104.5t-71.5 153.5t-23.5 191.5q0 80 13.5 151t43.5 134t75.5 108t113.5 71.5t153 26.5q92 0 162 -28.5t113.5 -76.5t70.5 -118t37.5 -145.5t10.5 -167.5zM240 512h491
q0 65 -12 122.5t-39 109.5t-77.5 83t-119.5 31q-56 0 -100 -21t-70 -55t-43 -80.5t-23.5 -92.5t-6.5 -97zM563 1051l-227 313h147l140 -279z" />
    <glyph glyph-name="eacute" unicode="&#xe9;" horiz-adv-x="964" 
d="M877 422h-637q4 -342 258 -342q149 0 311 59l33 -92q-182 -67 -346 -67q-107 0 -188 37.5t-129 104.5t-71.5 153.5t-23.5 191.5q0 80 13.5 151t43.5 134t75.5 108t113.5 71.5t153 26.5q92 0 162 -28.5t113.5 -76.5t70.5 -118t37.5 -145.5t10.5 -167.5zM240 512h491
q0 65 -12 122.5t-39 109.5t-77.5 83t-119.5 31q-56 0 -100 -21t-70 -55t-43 -80.5t-23.5 -92.5t-6.5 -97zM342 1077l129 285h145l-239 -307z" />
    <glyph glyph-name="ecircumflex" unicode="&#xea;" horiz-adv-x="964" 
d="M877 420h-637q4 -342 258 -342q153 0 311 61l33 -92q-181 -70 -346 -70q-107 0 -188 37.5t-129 105t-71.5 154t-23.5 191.5q0 81 13.5 152t43.5 134t75.5 108t113.5 71t153 26q92 0 162 -28.5t113.5 -76t70.5 -117.5t37.5 -146t10.5 -168zM240 512h491q0 64 -12 121
t-39 109.5t-77.5 83t-119.5 30.5q-56 0 -100 -21t-70 -54.5t-43 -79.5t-23.5 -92t-6.5 -97zM481 1253l-162 -186h-69l196 283h70l193 -285h-72z" />
    <glyph glyph-name="edieresis" unicode="&#xeb;" horiz-adv-x="964" 
d="M877 420h-637q4 -342 258 -342q153 0 311 61l33 -92q-181 -70 -346 -70q-107 0 -188 37.5t-129 105t-71.5 154t-23.5 191.5q0 81 13.5 152t43.5 134t75.5 108t113.5 71t153 26q92 0 162 -28.5t113.5 -76t70.5 -117.5t37.5 -146t10.5 -168zM240 512h491q0 64 -12 121
t-39 109.5t-77.5 83t-119.5 30.5q-56 0 -100 -21t-70 -54.5t-43 -79.5t-23.5 -92t-6.5 -97zM399 1206q0 -29 -18 -47t-47 -18t-46.5 18.5t-17.5 48.5q0 28 18 46t46 18q30 0 47.5 -18t17.5 -48zM690 1206q0 -29 -18 -47t-47 -18t-46.5 18.5t-17.5 48.5q0 28 18 46t46 18
q30 0 47.5 -18t17.5 -48z" />
    <glyph glyph-name="igrave" unicode="&#xec;" horiz-adv-x="450" 
d="M297 0h-145v938h145v-938zM84 1364h149l138 -279l-58 -34z" />
    <glyph glyph-name="iacute" unicode="&#xed;" horiz-adv-x="438" 
d="M291 938v-938h-146v938h146zM86 1077l131 285h145l-239 -307z" />
    <glyph glyph-name="icircumflex" unicode="&#xee;" horiz-adv-x="438" 
d="M291 938v-938h-146v938h146zM219 1253l-162 -186h-69l196 283h70l192 -285h-71z" />
    <glyph glyph-name="idieresis" unicode="&#xef;" horiz-adv-x="436" 
d="M291 938v-938h-146v938h146zM135 1206q0 -29 -17.5 -47t-45.5 -18q-30 0 -48 18.5t-18 48.5q0 28 18.5 46t47.5 18t46 -18t17 -48zM426 1206q0 -29 -18 -47t-46 -18q-30 0 -47.5 18.5t-17.5 48.5q0 28 18 46t47 18t46.5 -18.5t17.5 -47.5z" />
    <glyph glyph-name="eth" unicode="&#xf0;" horiz-adv-x="987" 
d="M754 467q0 56 -6 106.5t-23.5 104.5t-45.5 93t-75 64t-108 25q-51 0 -92.5 -17.5t-68.5 -49.5t-46 -70.5t-29 -86t-14 -90.5t-4 -89q0 -55 6.5 -104.5t24.5 -100.5t45.5 -87.5t73 -59.5t104.5 -23q60 0 106.5 24t74.5 62t46 90.5t24.5 103t6.5 105.5zM535 1135l-248 -111
l-35 80l223 100q-64 66 -178 152l63 74q17 -14 54 -43t59 -46t52 -43t55 -49l223 99l35 -80l-193 -84q254 -283 254 -719q0 -100 -23.5 -185.5t-70.5 -153.5t-126.5 -107t-182.5 -39q-104 0 -184 38.5t-128 106t-72 153.5t-24 187q0 75 12.5 144.5t41.5 133.5t72 111.5
t108 75.5t145 28q84 0 145 -41t97 -98q-64 186 -174 316z" />
    <glyph glyph-name="ntilde" unicode="&#xf1;" horiz-adv-x="972" 
d="M293 1135l-66 18q17 67 52.5 114.5t93.5 47.5q35 0 62.5 -13t45.5 -31.5t34.5 -37.5t36 -32t42.5 -13q51 0 80 94l65 -20q-11 -32 -21.5 -56t-28 -50.5t-42 -41t-55.5 -14.5q-37 0 -70.5 20t-53.5 43.5t-46 43.5t-51 20q-54 0 -78 -92zM281 938l6 -104q130 124 301 124
q60 0 107 -17.5t75 -45t46.5 -66t25 -76.5t6.5 -81v-672h-141v676q0 72 -36.5 119t-103.5 47q-160 0 -276 -119v-723h-146v938h136z" />
    <glyph glyph-name="ograve" unicode="&#xf2;" horiz-adv-x="980" 
d="M240 467q0 -58 6.5 -109.5t23.5 -104t44.5 -89.5t73.5 -60.5t106 -23.5q58 0 102.5 24t71.5 61.5t44 90t23 103.5t6 108q0 70 -11 133t-36.5 124t-76.5 97.5t-123 36.5q-60 0 -106 -24.5t-73 -63t-44.5 -92t-24 -104.5t-6.5 -107zM84 467q0 102 23.5 188.5t71 155.5
t128.5 108t187 39q84 0 152.5 -26.5t114.5 -71.5t77 -108t45 -134t14 -151q0 -100 -23 -185.5t-70 -154t-126.5 -108t-183.5 -39.5q-105 0 -185.5 38.5t-128.5 106.5t-72 154t-24 188zM350 1364h150l137 -279l-57 -34z" />
    <glyph glyph-name="oacute" unicode="&#xf3;" horiz-adv-x="980" 
d="M240 467q0 -58 6.5 -109.5t23.5 -104t44.5 -89.5t73.5 -60.5t106 -23.5q71 0 121.5 34.5t76 94t36.5 122.5t11 136q0 55 -6 105.5t-22.5 104t-43 92.5t-71 64t-102.5 25q-60 0 -106.5 -24.5t-73.5 -63t-44.5 -92t-23.5 -104.5t-6 -107zM84 467q0 102 23.5 188.5t71 155.5
t128.5 108t187 39q104 0 183 -39.5t125.5 -109t69.5 -155.5t23 -187q0 -100 -23 -185.5t-70 -154t-126 -108t-182 -39.5q-106 0 -186.5 38.5t-128.5 106.5t-71.5 154t-23.5 188zM485 1362h146l-240 -307l-35 22z" />
    <glyph glyph-name="ocircumflex" unicode="&#xf4;" horiz-adv-x="980" 
d="M240 465q0 -58 6.5 -109t23.5 -103.5t44.5 -90t73.5 -61t106 -23.5q71 0 121.5 34.5t76 94t36.5 122.5t11 136q0 71 -10.5 134t-36 124t-76 97t-122.5 36q-60 0 -106.5 -24.5t-73.5 -63t-44.5 -92t-23.5 -104.5t-6 -107zM84 465q0 103 23.5 189.5t71 155t128.5 107.5
t187 39q104 0 183 -39.5t125.5 -109t69.5 -155.5t23 -187q0 -100 -23 -185.5t-70 -154.5t-126 -108.5t-182 -39.5q-85 0 -154 25.5t-116 70t-79 106.5t-46.5 133.5t-14.5 152.5zM496 1253l-162 -186h-70l197 283h69l193 -285h-72z" />
    <glyph glyph-name="otilde" unicode="&#xf5;" horiz-adv-x="980" 
d="M240 467q0 -58 6.5 -109.5t23.5 -104t44.5 -89.5t73.5 -60.5t106 -23.5q71 0 121.5 34.5t76 94t36.5 122.5t11 136q0 55 -6 105.5t-22.5 104t-43 92.5t-71 64t-102.5 25q-60 0 -106.5 -24.5t-73.5 -63t-44.5 -92t-23.5 -104.5t-6 -107zM84 467q0 102 23.5 188.5t71 155.5
t128.5 108t187 39q104 0 183 -39.5t125.5 -109t69.5 -155.5t23 -187q0 -100 -23 -185.5t-70 -154t-126 -108t-182 -39.5q-106 0 -186.5 38.5t-128.5 106.5t-71.5 154t-23.5 188zM303 1135l-65 18q17 67 52 114.5t93 47.5q35 0 62.5 -13t45.5 -31.5t34.5 -37.5t36 -32
t42.5 -13q51 0 80 94l66 -20q-10 -32 -21 -56t-28.5 -50.5t-42.5 -41t-56 -14.5q-37 0 -70.5 20t-53.5 43.5t-46 43.5t-51 20q-54 0 -78 -92z" />
    <glyph glyph-name="odieresis" unicode="&#xf6;" horiz-adv-x="980" 
d="M240 465q0 -58 6.5 -109t23.5 -103.5t44.5 -90t73.5 -61t106 -23.5q71 0 121.5 34.5t76 94t36.5 122.5t11 136q0 71 -10.5 134t-36 124t-76 97t-122.5 36q-60 0 -106.5 -24.5t-73.5 -63t-44.5 -92t-23.5 -104.5t-6 -107zM84 465q0 103 23.5 189.5t71 155t128.5 107.5
t187 39q104 0 183 -39.5t125.5 -109t69.5 -155.5t23 -187q0 -100 -23 -185.5t-70 -154.5t-126 -108.5t-182 -39.5q-85 0 -154 25.5t-116 70t-79 106.5t-46.5 133.5t-14.5 152.5zM412 1206q0 -29 -18 -47t-46 -18q-30 0 -47.5 18.5t-17.5 48.5q0 28 18 46t47 18t46.5 -18.5
t17.5 -47.5zM702 1206q0 -29 -17.5 -47t-45.5 -18q-30 0 -48 18.5t-18 48.5q0 28 18.5 46t47.5 18t46 -18t17 -48z" />
    <glyph glyph-name="divide" unicode="&#xf7;" horiz-adv-x="1036" 
d="M516 326q-32 0 -52 20.5t-20 52.5q0 35 20.5 54.5t53.5 19.5t53.5 -20.5t20.5 -53.5t-21.5 -53t-54.5 -20zM516 791q-32 0 -52 20.5t-20 52.5q0 35 20.5 54.5t53.5 19.5t53.5 -20.5t20.5 -53.5t-21.5 -53t-54.5 -20zM129 678h778v-92h-778v92z" />
    <glyph glyph-name="oslash" unicode="&#xf8;" horiz-adv-x="980" 
d="M84 467q0 102 23.5 188.5t71 155.5t128.5 108t187 39q168 0 272 -104l70 86l53 -47l-78 -94q86 -131 86 -332q0 -100 -23 -185.5t-70 -154t-126.5 -108t-183.5 -39.5q-170 0 -275 100l-72 -88l-55 47l80 96q-88 127 -88 332zM240 467q0 -133 28 -213l410 496
q-63 108 -184 108q-60 0 -106 -24.5t-73 -63t-44.5 -92t-24 -104.5t-6.5 -107zM741 467q0 122 -30 211l-408 -498q66 -100 191 -100q58 0 102.5 24t71.5 61.5t44 90t23 103.5t6 108z" />
    <glyph glyph-name="ugrave" unicode="&#xf9;" horiz-adv-x="972" 
d="M340 1364h149l138 -279l-58 -34zM686 80q-82 -47 -152 -73.5t-149 -26.5q-60 0 -107 17.5t-75 45t-46.5 66t-25 76.5t-6.5 81v672h141v-676q0 -72 36.5 -119t103.5 -47q176 0 276 74v768h145v-938h-133z" />
    <glyph glyph-name="uacute" unicode="&#xfa;" horiz-adv-x="972" 
d="M477 1362h146l-240 -307l-37 22zM686 80q-82 -47 -152 -73.5t-149 -26.5q-60 0 -107 17.5t-75 45t-46.5 66t-25 76.5t-6.5 81v672h141v-676q0 -72 36.5 -119t103.5 -47q176 0 276 74v768h145v-938h-133z" />
    <glyph glyph-name="ucircumflex" unicode="&#xfb;" horiz-adv-x="966" 
d="M324 1067h-70l197 283h71l193 -285h-72l-158 188zM686 80q-82 -47 -152 -73.5t-149 -26.5q-60 0 -107 17.5t-75 45t-46.5 66t-25 76.5t-6.5 81v672h141v-676q0 -72 36.5 -119t103.5 -47q176 0 276 74v768h145v-938h-133z" />
    <glyph glyph-name="udieresis" unicode="&#xfc;" horiz-adv-x="966" 
d="M403 1206q0 -29 -18 -47t-47 -18t-46.5 18.5t-17.5 48.5q0 28 18 46t46 18q30 0 47.5 -18t17.5 -48zM694 1206q0 -29 -18 -47t-47 -18t-46.5 18.5t-17.5 48.5q0 28 18 46t46 18q30 0 47.5 -18t17.5 -48zM686 80q-82 -47 -152 -73.5t-149 -26.5q-60 0 -107 17.5t-75 45
t-46.5 66t-25 76.5t-6.5 81v672h141v-676q0 -72 36.5 -119t103.5 -47q176 0 276 74v768h145v-938h-133z" />
    <glyph glyph-name="yacute" unicode="&#xfd;" horiz-adv-x="833" 
d="M406 1362h145l-240 -307l-35 22zM428 152l234 786h137l-285 -940q-45 -184 -125 -267t-219 -83q-56 0 -121 6l17 106h90q29 0 48.5 2.5t47 15.5t47.5 37t41.5 69.5t38.5 109.5q1 2 -4 7.5t-16.5 25t-22.5 49.5l-307 862h141z" />
    <glyph glyph-name="thorn" unicode="&#xfe;" horiz-adv-x="976" 
d="M893 471q0 -71 -8.5 -135t-32.5 -131t-61.5 -115t-100 -79t-143.5 -31q-70 0 -128.5 24t-127.5 72v-428h-146v1693h144v-460q69 39 125.5 58t134.5 19q80 0 141.5 -30.5t99 -78.5t61.5 -114t33 -130t9 -134zM737 467q0 50 -3 91.5t-10 87.5t-22 80.5t-36.5 63.5
t-55.5 44.5t-78 15.5q-67 0 -119 -14.5t-122 -47.5v-606q64 -44 117 -69t110 -25q219 0 219 379z" />
    <glyph glyph-name="ydieresis" unicode="&#xff;" horiz-adv-x="833" 
d="M332 1206q0 -29 -18 -47t-46 -18q-30 0 -47.5 18.5t-17.5 48.5q0 28 18 46t47 18t46.5 -18.5t17.5 -47.5zM623 1206q0 -29 -18 -47t-46 -18q-30 0 -47.5 18.5t-17.5 48.5q0 28 18 46t47 18t46.5 -18.5t17.5 -47.5zM428 152l234 786h137l-285 -940q-45 -184 -125 -267
t-219 -83q-56 0 -121 6l17 106h90q29 0 48.5 2.5t47 15.5t47.5 37t41.5 69.5t38.5 109.5q1 2 -4 7.5t-16.5 25t-22.5 49.5l-307 862h141z" />
    <glyph glyph-name="Amacron" unicode="&#x100;" horiz-adv-x="1050" 
d="M291 377h469l-234 694zM1036 0h-147l-90 260h-547l-92 -260h-146l443 1270h141zM731 1477h-414v77h414v-77z" />
    <glyph glyph-name="amacron" unicode="&#x101;" horiz-adv-x="888" 
d="M635 1169h-414v78h414v-78zM621 178v334q-74 -16 -122 -28.5t-100 -29.5t-82.5 -35t-56.5 -43t-37.5 -56.5t-11.5 -71.5q0 -71 40.5 -115.5t104.5 -44.5q131 0 265 90zM182 813l-22 96q192 49 315 49q162 0 226.5 -84t64.5 -249v-625h-137l-4 98q-80 -60 -147 -89
t-152 -29q-117 0 -185.5 75.5t-68.5 194.5q0 43 9.5 79t32 65.5t46.5 52t67 42.5t78 34t95.5 30t103.5 25.5t117 25.5q0 142 -33 194t-135 52q-21 0 -45.5 -2t-43.5 -4t-48.5 -7t-43.5 -7.5t-47.5 -8.5t-42.5 -8z" />
    <glyph glyph-name="Abreve" unicode="&#x102;" horiz-adv-x="1050" 
d="M291 377h469l-234 694zM1036 0h-147l-90 260h-547l-92 -260h-146l443 1270h141zM283 1632h92q0 -58 45 -100.5t104 -42.5q60 0 105 42t45 101h92q0 -97 -72 -166t-170 -69q-97 0 -169 69.5t-72 165.5z" />
    <glyph glyph-name="abreve" unicode="&#x103;" horiz-adv-x="888" 
d="M188 1325h93q0 -58 45 -100.5t104 -42.5q60 0 105 42t45 101h92q0 -97 -72 -166t-170 -69q-97 0 -169.5 69.5t-72.5 165.5zM621 178v334q-74 -16 -122 -28.5t-100 -29.5t-82.5 -35t-56.5 -43t-37.5 -56.5t-11.5 -71.5q0 -71 40.5 -115.5t104.5 -44.5q131 0 265 90z
M182 813l-22 96q192 49 315 49q162 0 226.5 -84t64.5 -249v-625h-137l-4 98q-80 -60 -147 -89t-152 -29q-117 0 -185.5 75.5t-68.5 194.5q0 43 9.5 79t32 65.5t46.5 52t67 42.5t78 34t95.5 30t103.5 25.5t117 25.5q0 142 -33 194t-135 52q-21 0 -45.5 -2t-43.5 -4t-48.5 -7
t-43.5 -7.5t-47.5 -8.5t-42.5 -8z" />
    <glyph glyph-name="Aogonek" unicode="&#x104;" horiz-adv-x="1048" 
d="M1036 0h-43q-47 -44 -72 -71t-46 -65t-21 -73q0 -42 25 -67t67 -25q47 0 107 39l41 -60q-91 -61 -170 -61q-68 0 -114 41t-46 104q0 59 40 113.5t116 124.5h-31l-90 260h-547l-92 -260h-146l443 1270h141zM291 377h469l-234 694z" />
    <glyph glyph-name="aogonek" unicode="&#x105;" horiz-adv-x="888" 
d="M182 813l-22 96q192 49 315 49q162 0 226.5 -84t64.5 -249v-625h-37q-47 -44 -72 -71t-46 -65t-21 -73q0 -42 25 -67t67 -25q46 0 106 39l41 -60q-91 -61 -170 -61q-68 0 -113.5 41t-45.5 104q0 59 40 114t115 124h-26l-4 98q-80 -60 -147 -89t-152 -29
q-117 0 -185.5 75.5t-68.5 194.5q0 43 9.5 79t32 65.5t46.5 52t67 42.5t78 34t95.5 30t103.5 25.5t117 25.5q0 142 -33 194t-135 52q-21 0 -45.5 -2t-43.5 -4t-48.5 -7t-43.5 -7.5t-47.5 -8.5t-42.5 -8zM621 178v334q-74 -16 -122 -28.5t-100 -29.5t-82.5 -35t-56.5 -43
t-37.5 -56.5t-11.5 -71.5q0 -71 40.5 -115.5t104.5 -44.5q131 0 265 90z" />
    <glyph glyph-name="Cacute" unicode="&#x106;" horiz-adv-x="1003" 
d="M936 133l29 -113q-219 -40 -396 -40q-111 0 -196.5 37.5t-137.5 98.5t-85 148.5t-45.5 176.5t-12.5 194t12.5 194.5t45.5 177t85.5 148t138 98t197.5 37.5q108 0 191.5 -16t175.5 -57l-45 -105q-81 36 -150.5 49t-164.5 13q-78 0 -137.5 -35.5t-93.5 -89.5t-55.5 -129.5
t-28.5 -143t-7 -141.5q0 -76 6.5 -143.5t27.5 -143t55 -129.5t93 -89.5t137 -35.5q149 0 361 39zM391 1384l129 285h146l-240 -307z" />
    <glyph glyph-name="cacute" unicode="&#x107;" horiz-adv-x="811" 
d="M307 1069l131 285h146l-240 -307zM764 918l-23 -95q-140 35 -276 35q-53 0 -94 -26.5t-65 -67.5t-39.5 -95t-21 -103t-5.5 -99q0 -66 10 -128t33.5 -123.5t69.5 -98.5t110 -37q101 0 166 7.5t145 31.5l27 -94q-103 -25 -173 -35t-169 -10q-80 0 -144 28t-106.5 74.5
t-71 110t-41 131.5t-12.5 143q0 77 12 146.5t40 133.5t71 110t108.5 73.5t147.5 27.5q153 0 301 -40z" />
    <glyph glyph-name="Cdotaccent" unicode="&#x10a;" horiz-adv-x="1005" 
d="M936 133l29 -113q-219 -40 -396 -40q-111 0 -196.5 37.5t-137.5 98.5t-85 148.5t-45.5 176.5t-12.5 194t12.5 194.5t45.5 177t85.5 148t138 98t197.5 37.5q108 0 191.5 -16t175.5 -57l-45 -105q-81 36 -150.5 49t-164.5 13q-78 0 -137.5 -35.5t-93.5 -89.5t-55.5 -129.5
t-28.5 -143t-7 -141.5q0 -76 6.5 -143.5t27.5 -143t55 -129.5t93 -89.5t137 -35.5q149 0 361 39zM618 1513q0 -40 -25 -65t-65 -25q-39 0 -63.5 26.5t-24.5 66.5q0 38 25 63t63 25q41 0 65.5 -25.5t24.5 -65.5z" />
    <glyph glyph-name="cdotaccent" unicode="&#x10b;" horiz-adv-x="813" 
d="M535 1188q0 -38 -25.5 -63t-63.5 -25q-41 0 -65.5 25t-24.5 65t25 65t65 25q39 0 64 -26t25 -66zM764 918l-23 -95q-140 35 -276 35q-53 0 -94 -26.5t-65 -67.5t-39.5 -95t-21 -103t-5.5 -99q0 -66 10 -128t33.5 -123.5t69.5 -98.5t110 -37q101 0 166 7.5t145 31.5
l27 -94q-103 -25 -173 -35t-169 -10q-80 0 -144 28t-106.5 74.5t-71 110t-41 131.5t-12.5 143q0 77 12 146.5t40 133.5t71 110t108.5 73.5t147.5 27.5q153 0 301 -40z" />
    <glyph glyph-name="Ccaron" unicode="&#x10c;" horiz-adv-x="1005" 
d="M936 133l29 -113q-219 -40 -396 -40q-111 0 -196.5 37.5t-137.5 98.5t-85 148.5t-45.5 176.5t-12.5 194t12.5 194.5t45.5 177t85.5 148t138 98t197.5 37.5q108 0 191.5 -16t175.5 -57l-45 -105q-81 36 -150.5 49t-164.5 13q-78 0 -137.5 -35.5t-93.5 -89.5t-55.5 -129.5
t-28.5 -143t-7 -141.5q0 -76 6.5 -143.5t27.5 -143t55 -129.5t93 -89.5t137 -35.5q149 0 361 39zM299 1655h70l161 -189l160 187h70l-195 -281h-69z" />
    <glyph glyph-name="ccaron" unicode="&#x10d;" horiz-adv-x="811" 
d="M412 1055l-197 284h70l161 -190l160 188h70l-195 -282h-69zM764 918l-23 -95q-140 35 -276 35q-53 0 -94 -26.5t-65 -67.5t-39.5 -95t-21 -103t-5.5 -99q0 -66 10 -128t33.5 -123.5t69.5 -98.5t110 -37q101 0 166 7.5t145 31.5l27 -94q-103 -25 -173 -35t-169 -10
q-80 0 -144 28t-106.5 74.5t-71 110t-41 131.5t-12.5 143q0 77 12 146.5t40 133.5t71 110t108.5 73.5t147.5 27.5q153 0 301 -40z" />
    <glyph glyph-name="Dcaron" unicode="&#x10e;" horiz-adv-x="1165" 
d="M309 1151v-1034h312q59 0 106 23t77 64.5t51 91.5t32 112.5t15.5 118t4.5 116.5q0 508 -286 508h-312zM627 0h-471v1268h471q104 0 184 -37t128.5 -96.5t79 -144t41.5 -170t11 -185.5t-12.5 -187.5t-44 -171.5t-80.5 -143.5t-127.5 -96t-179.5 -36.5zM545 1378l-197 285
h70l162 -190l159 188h70l-195 -283h-69z" />
    <glyph glyph-name="dcaron" unicode="&#x10f;" horiz-adv-x="1124" 
d="M1018 1343h106q0 -123 -24.5 -209t-93.5 -192l-66 35q50 73 64 157.5t14 208.5zM240 471q0 -50 3 -91.5t10 -87.5t21.5 -80.5t36.5 -63.5t55.5 -44.5t77.5 -15.5q67 0 120 14.5t122 47.5v606q-64 44 -117 69t-110 25q-219 0 -219 -379zM84 467q0 71 8.5 135t32.5 131
t61.5 115t100 79t143.5 31q70 0 128.5 -24t127.5 -72v494h145v-1356h-131l-10 57q-71 -39 -127.5 -58t-134.5 -19q-80 0 -141.5 30.5t-99 78.5t-61.5 114t-33 130t-9 134z" />
    <glyph glyph-name="Dcroat" unicode="&#x110;" horiz-adv-x="1165" 
d="M309 604v-487h312q59 0 106 23t77 64.5t51 91.5t32 112.5t15.5 118t4.5 116.5q0 508 -286 508h-312v-465h312v-82h-312zM627 0h-471v604h-119v82h119v582h471q104 0 184 -37t128.5 -96.5t79 -144t41.5 -170t11 -185.5t-12.5 -187.5t-44 -171.5t-80.5 -143.5t-127.5 -96
t-179.5 -36.5z" />
    <glyph glyph-name="dcroat" unicode="&#x111;" horiz-adv-x="976" 
d="M84 467q0 71 8.5 135t32.5 131t61.5 115t100 79t143.5 31q70 0 128.5 -24t127.5 -72v250h-295v82h295v162h145v-162h136v-82h-136v-1112h-131l-10 57q-71 -39 -127.5 -58t-134.5 -19q-80 0 -141.5 30.5t-99 78.5t-61.5 114t-33 130t-9 134zM240 471q0 -50 3 -91.5
t10 -87.5t21.5 -80.5t36.5 -63.5t55.5 -44.5t77.5 -15.5q67 0 120 14.5t122 47.5v606q-64 44 -117 69t-110 25q-219 0 -219 -379z" />
    <glyph glyph-name="Emacron" unicode="&#x112;" horiz-adv-x="962" 
d="M158 1268h735v-117h-582v-418h430v-117h-430v-499h623v-117h-776v1268zM760 1477h-414v77h414v-77z" />
    <glyph glyph-name="emacron" unicode="&#x113;" horiz-adv-x="964" 
d="M877 422h-637q4 -342 258 -342q149 0 311 59l33 -92q-182 -67 -346 -67q-107 0 -188 37.5t-129 104.5t-71.5 153.5t-23.5 191.5q0 80 13.5 151t43.5 134t75.5 108t113.5 71.5t153 26.5q92 0 162 -28.5t113.5 -76.5t70.5 -118t37.5 -145.5t10.5 -167.5zM240 512h491
q0 65 -12 122.5t-39 109.5t-77.5 83t-119.5 31q-56 0 -100 -21t-70 -55t-43 -80.5t-23.5 -92.5t-6.5 -97zM686 1169h-414v78h414v-78z" />
    <glyph glyph-name="Edotaccent" unicode="&#x116;" horiz-adv-x="962" 
d="M158 1268h735v-117h-582v-418h430v-117h-430v-499h623v-117h-776v1268zM641 1513q0 -40 -25 -65t-63 -25q-41 0 -65.5 26.5t-24.5 66.5q0 38 25 63t65 25q39 0 63.5 -25.5t24.5 -65.5z" />
    <glyph glyph-name="edotaccent" unicode="&#x117;" horiz-adv-x="964" 
d="M877 420h-637q4 -342 258 -342q153 0 311 61l33 -92q-181 -70 -346 -70q-107 0 -188 37.5t-129 105t-71.5 154t-23.5 191.5q0 81 13.5 152t43.5 134t75.5 108t113.5 71t153 26q92 0 162 -28.5t113.5 -76t70.5 -117.5t37.5 -146t10.5 -168zM240 512h491q0 64 -12 121
t-39 109.5t-77.5 83t-119.5 30.5q-56 0 -100 -21t-70 -54.5t-43 -79.5t-23.5 -92t-6.5 -97zM569 1206q0 -40 -25 -65t-65 -25q-39 0 -63.5 25.5t-24.5 64.5q0 40 25 65t63 25q39 0 64.5 -25.5t25.5 -64.5z" />
    <glyph glyph-name="Eogonek" unicode="&#x118;" horiz-adv-x="962" 
d="M158 1268h735v-117h-582v-418h430v-117h-430v-499h623v-117h-80q-4 -4 -30.5 -30t-32.5 -32.5t-26 -28.5t-26 -33.5t-16.5 -31t-14 -37t-3.5 -36.5q0 -37 25 -60.5t63 -23.5q46 0 106 39l41 -58q-85 -61 -170 -61q-68 0 -114 40.5t-46 102.5q0 34 12 65.5t41 66t50 56
t65 62.5h-620v1268z" />
    <glyph glyph-name="eogonek" unicode="&#x119;" horiz-adv-x="964" 
d="M240 512h491q0 51 -7 97.5t-24.5 93t-44.5 80t-70.5 54.5t-99.5 21q-70 0 -120.5 -31t-76 -84t-36.5 -109t-12 -122zM877 422h-637q4 -342 258 -342q149 0 311 59l33 -92q-78 -32 -203 -55q-46 -43 -72.5 -70.5t-49.5 -67t-23 -75.5q0 -42 25 -68t67 -26q46 0 106 39
l41 -58q-89 -59 -160 -59q-70 0 -120 43t-50 114q0 56 41 109t111 111q-27 -2 -111 -2q-95 8 -165.5 49t-112.5 107t-62 148t-20 181q0 80 13.5 151t43.5 134t75.5 108t113.5 71.5t153 26.5q92 0 162.5 -28.5t113.5 -76.5t70 -118.5t37.5 -145.5t10.5 -167z" />
    <glyph glyph-name="Ecaron" unicode="&#x11a;" horiz-adv-x="962" 
d="M158 1268h735v-117h-582v-418h430v-117h-430v-499h623v-117h-776v1268zM518 1372l-196 283h69l162 -189l160 187h69l-194 -281h-70z" />
    <glyph glyph-name="ecaron" unicode="&#x11b;" horiz-adv-x="964" 
d="M877 420h-637q4 -342 258 -342q153 0 311 61l33 -92q-181 -70 -346 -70q-107 0 -188 37.5t-129 105t-71.5 154t-23.5 191.5q0 81 13.5 152t43.5 134t75.5 108t113.5 71t153 26q92 0 162 -28.5t113.5 -76t70.5 -117.5t37.5 -146t10.5 -168zM240 512h491q0 64 -12 121
t-39 109.5t-77.5 83t-119.5 30.5q-56 0 -100 -21t-70 -54.5t-43 -79.5t-23.5 -92t-6.5 -97zM446 1065l-196 285h69l162 -191l160 189h70l-195 -283h-70z" />
    <glyph glyph-name="Gbreve" unicode="&#x11e;" horiz-adv-x="1165" 
d="M874 121v514h154v-606q-220 -49 -459 -49q-111 0 -196.5 37.5t-137.5 98.5t-85 148.5t-45.5 176.5t-12.5 194q0 104 12.5 194t46 177t86 148t138 98.5t196.5 37.5q217 0 455 -86l-39 -106q-213 78 -416 78q-65 0 -117 -24.5t-85 -68.5t-56.5 -96t-35 -116t-16.5 -119.5
t-5 -114.5q0 -70 4.5 -129.5t16.5 -124.5t34.5 -114.5t56 -91t85 -63.5t116.5 -22q166 0 305 29zM317 1632h93q0 -58 45.5 -100.5t103.5 -42.5q61 0 105.5 42t44.5 101h92q0 -98 -71.5 -166.5t-170.5 -68.5q-96 0 -169 69.5t-73 165.5z" />
    <glyph glyph-name="gbreve" unicode="&#x11f;" horiz-adv-x="974" 
d="M229 1325h93q0 -58 45.5 -100.5t103.5 -42.5q61 0 105.5 42t44.5 101h92q0 -98 -71.5 -166.5t-170.5 -68.5q-96 0 -169 69.5t-73 165.5zM684 164q-72 -51 -132 -76t-132 -25q-74 0 -133 25t-96.5 67t-62 99.5t-34.5 119t-10 130.5q0 73 10 136.5t35 123t63 101.5t98 67.5
t136 25.5q81 0 134.5 -17t127.5 -56l8 53h133v-942q0 -160 -100.5 -240t-282.5 -80q-34 0 -74.5 3t-60 5.5t-75 10t-62.5 8.5l14 104q132 -20 228 -20q122 0 195 52.5t73 164.5v160zM238 508q0 -51 5.5 -95t20 -89.5t37.5 -77.5t62 -52t90 -20q120 0 231 90v524
q-121 62 -242 62q-204 0 -204 -342z" />
    <glyph glyph-name="Gdotaccent" unicode="&#x120;" horiz-adv-x="1165" 
d="M874 121v514h154v-606q-220 -49 -459 -49q-111 0 -196.5 37.5t-137.5 98.5t-85 148.5t-45.5 176.5t-12.5 194q0 104 12.5 194t46 177t86 148t138 98.5t196.5 37.5q217 0 455 -86l-39 -106q-213 78 -416 78q-65 0 -117 -24.5t-85 -68.5t-56.5 -96t-35 -116t-16.5 -119.5
t-5 -114.5q0 -70 4.5 -129.5t16.5 -124.5t34.5 -114.5t56 -91t85 -63.5t116.5 -22q166 0 305 29zM649 1513q0 -40 -25 -65t-65 -25q-39 0 -63.5 26.5t-24.5 66.5q0 38 25 63t63 25q41 0 65.5 -25.5t24.5 -65.5z" />
    <glyph glyph-name="gdotaccent" unicode="&#x121;" horiz-adv-x="974" 
d="M561 1206q0 -40 -25 -65t-65 -25q-39 0 -63.5 26t-24.5 66q0 38 25 63t63 25q41 0 65.5 -25t24.5 -65zM684 164q-72 -51 -132 -76t-132 -25q-74 0 -133 25t-96.5 67t-62 99.5t-34.5 119t-10 130.5q0 73 10 136.5t35 123t63 101.5t98 67.5t136 25.5q81 0 134.5 -17
t127.5 -56l8 53h133v-942q0 -160 -100.5 -240t-282.5 -80q-34 0 -74.5 3t-60 5.5t-75 10t-62.5 8.5l14 104q132 -20 228 -20q122 0 195 52.5t73 164.5v160zM238 508q0 -51 5.5 -95t20 -89.5t37.5 -77.5t62 -52t90 -20q120 0 231 90v524q-121 62 -242 62q-204 0 -204 -342z
" />
    <glyph glyph-name="Gcommaaccent" unicode="&#x122;" horiz-adv-x="1163" 
d="M553 -147l20 129q-110 0 -195 36.5t-138 97t-87 147t-47.5 177t-13.5 195.5q0 104 12.5 194t46 177t86 148t138 98.5t196.5 37.5q217 0 455 -86l-39 -106q-213 78 -416 78q-78 0 -137 -36.5t-92 -91.5t-53 -131t-26.5 -142t-6.5 -138q0 -70 4.5 -129.5t16.5 -124.5
t34.5 -114.5t56 -91t85 -63.5t116.5 -22q166 0 305 29v514h154v-606q-177 -40 -393 -47l-14 -76q59 -2 110 -43t51 -99q0 -78 -54.5 -116.5t-129.5 -38.5q-65 0 -172 35l16 61q75 -16 144 -16q43 0 73.5 18.5t30.5 59.5t-40 63.5t-87 22.5h-10z" />
    <glyph glyph-name="gcommaaccent" unicode="&#x123;" horiz-adv-x="974" 
d="M514 1055h-117q0 126 34.5 219.5t117.5 179.5l59 -57q-57 -61 -75.5 -145t-18.5 -197zM684 164q-72 -51 -132 -76t-132 -25q-74 0 -133 25t-96.5 67t-62 99.5t-34.5 119t-10 130.5q0 73 10 136.5t35 123t63 101.5t98 67.5t136 25.5q81 0 134.5 -17t127.5 -56l8 53h133
v-942q0 -160 -100.5 -240t-282.5 -80q-34 0 -74.5 3t-60 5.5t-75 10t-62.5 8.5l14 104q132 -20 228 -20q122 0 195 52.5t73 164.5v160zM238 508q0 -51 5.5 -95t20 -89.5t37.5 -77.5t62 -52t90 -20q120 0 231 90v524q-121 62 -242 62q-204 0 -204 -342z" />
    <glyph glyph-name="Hbar" unicode="&#x126;" horiz-adv-x="1173" 
d="M1008 1268v-248h116v-117h-116v-903h-154v612h-545v-612h-153v903h-127v117h127v248h153v-248h545v248h154zM309 729h545v174h-545v-174z" />
    <glyph glyph-name="hbar" unicode="&#x127;" horiz-adv-x="972" 
d="M588 958q60 0 107 -17.5t75 -45t46.5 -66t25 -76.5t6.5 -81v-672h-141v676q0 72 -36.5 119t-103.5 47q-160 0 -276 -119v-723h-146v1094h-108v82h108v180h146v-180h332v-82h-332v-260q130 124 297 124z" />
    <glyph glyph-name="Imacron" unicode="&#x12a;" horiz-adv-x="468" 
d="M158 0v1270h153v-1270h-153zM442 1477h-413v77h413v-77z" />
    <glyph glyph-name="imacron" unicode="&#x12b;" horiz-adv-x="436" 
d="M291 938v-938h-146v938h146zM428 1169h-414v78h414v-78z" />
    <glyph glyph-name="Iogonek" unicode="&#x12e;" horiz-adv-x="468" 
d="M158 0v1270h153v-1270h-35l-10 -10q-32 -30 -48 -45.5t-42.5 -46.5t-38.5 -59t-12 -56q0 -42 25 -67t67 -25q47 0 107 39l41 -60q-91 -61 -170 -61q-69 0 -115.5 41t-46.5 106q0 30 10 58.5t33 57.5t37.5 45.5t46 46.5t37.5 36h-39z" />
    <glyph glyph-name="iogonek" unicode="&#x12f;" horiz-adv-x="438" 
d="M291 938v-938h-29l-18 -16q-40 -39 -62.5 -63t-45.5 -63.5t-23 -72.5q0 -42 25 -68t67 -26q46 0 106 39l41 -58q-85 -61 -170 -61q-68 0 -113.5 40.5t-45.5 102.5q0 95 155 246h-33v938h146zM221 1296q38 0 63 -25t25 -63q0 -40 -25.5 -64t-66.5 -24q-40 0 -64 24t-24 64
q0 41 25 64.5t67 23.5z" />
    <glyph glyph-name="Idotaccent" unicode="&#x130;" horiz-adv-x="468" 
d="M158 0v1270h153v-1270h-153zM324 1513q0 -40 -25.5 -65t-65.5 -25q-39 0 -63.5 26.5t-24.5 66.5q0 38 25 63t63 25q41 0 66 -25.5t25 -65.5z" />
    <glyph glyph-name="dotlessi" unicode="&#x131;" horiz-adv-x="434" 
d="M289 938v-938h-146v938h146z" />
    <glyph glyph-name="Kcommaaccent" unicode="&#x136;" horiz-adv-x="1105" 
d="M557 -150l25 150h61l-20 -98q61 -2 111 -41.5t50 -98.5q0 -79 -54 -117t-128 -38q-81 0 -172 35l14 61q70 -18 144 -18q43 0 73.5 18.5t30.5 58.5q0 41 -39.5 64.5t-85.5 23.5h-10zM166 1268h153v-592l37 29q62 48 100 79t90.5 78.5t95.5 97t79 103.5q40 55 115 205h165
q-42 -86 -86 -156.5t-79.5 -117t-87.5 -96.5t-84.5 -77t-96.5 -78t-100 -81l580 -662h-191l-537 635v-635h-153v1268z" />
    <glyph glyph-name="kcommaaccent" unicode="&#x137;" horiz-adv-x="907" 
d="M424 -150l25 150h61l-18 -98q60 -2 110.5 -42t50.5 -98q0 -54 -28.5 -90.5t-68 -50.5t-87.5 -14q-77 0 -172 35l16 61q71 -18 144 -18q42 0 73 19t31 58q0 41 -40 64.5t-87 23.5h-10zM145 1358h146v-828q22 19 76.5 63t77 63t64 58t63.5 67.5t48.5 70t45.5 86.5h151
q-8 -17 -23.5 -53.5t-24.5 -53.5t-26 -44.5t-39 -51t-53 -47.5q-22 -20 -107.5 -83.5t-123.5 -94.5l444 -510h-164l-409 485v-485h-146v1358z" />
    <glyph glyph-name="Lacute" unicode="&#x139;" horiz-adv-x="894" 
d="M156 0v1270h153v-1153h547v-117h-700zM369 1384l129 285h145l-240 -307z" />
    <glyph glyph-name="lacute" unicode="&#x13a;" horiz-adv-x="436" 
d="M76 1444l129 285h145l-239 -308zM291 0h-146v1391l146 32v-1423z" />
    <glyph glyph-name="Lcommaaccent" unicode="&#x13b;" horiz-adv-x="897" 
d="M158 1270h153v-1153h545v-117h-317l-21 -96q61 -2 111.5 -42.5t50.5 -99.5q0 -78 -53.5 -116.5t-128.5 -38.5q-69 0 -172 35l14 61q75 -16 143 -16q44 0 74.5 18t30.5 59t-39.5 63.5t-85.5 22.5h-10l24 150h-321q0 244 1 662t1 608z" />
    <glyph glyph-name="lcommaaccent" unicode="&#x13c;" horiz-adv-x="434" 
d="M164 -150l24 150h-43v1391l146 32v-1423h-41l-21 -98q60 -2 111 -42.5t51 -97.5q0 -80 -54 -117.5t-132 -37.5q-90 0 -168 35l14 61q71 -18 144 -18q43 0 73.5 18.5t30.5 58.5q0 43 -42.5 65.5t-92.5 22.5z" />
    <glyph glyph-name="Lcaron" unicode="&#x13d;" horiz-adv-x="894" 
d="M156 0v1270h153v-1153h547v-117h-700zM678 1268h106q0 -123 -24.5 -209.5t-93.5 -192.5l-66 35q50 75 64 158.5t14 208.5z" />
    <glyph glyph-name="lcaron" unicode="&#x13e;" horiz-adv-x="577" 
d="M473 1337h107q0 -124 -25 -210t-94 -193l-66 35q50 75 64 159t14 209zM291 0h-146v1391l146 32v-1423z" />
    <glyph glyph-name="Ldot" unicode="&#x13f;" horiz-adv-x="894" 
d="M156 0v1270h153v-1153h547v-117h-700zM625 643q0 -40 -25 -65t-65 -25q-39 0 -64 26t-25 66q0 38 25.5 63t63.5 25q41 0 65.5 -25t24.5 -65z" />
    <glyph glyph-name="ldot" unicode="&#x140;" horiz-adv-x="573" 
d="M291 0h-146v1391l146 32v-1423zM571 643q0 -40 -25 -65t-65 -25q-39 0 -63.5 26t-24.5 66q0 38 25 63t63 25q41 0 65.5 -25t24.5 -65z" />
    <glyph glyph-name="Lslash" unicode="&#x141;" horiz-adv-x="903" 
d="M10 557l154 121v594h153v-477l285 229v-129l-285 -227v-551h545v-117h-698v551l-154 -123v129z" />
    <glyph glyph-name="lslash" unicode="&#x142;" horiz-adv-x="436" 
d="M291 0h-146v541l-145 -123v94l145 123v756l146 32v-665l145 123v-95l-145 -122v-664z" />
    <glyph glyph-name="Nacute" unicode="&#x143;" horiz-adv-x="1165" 
d="M444 1384l131 285h146l-240 -307zM293 1020v-1020h-137v1268h151l567 -1063v1063h136v-1268h-164z" />
    <glyph glyph-name="nacute" unicode="&#x144;" horiz-adv-x="970" 
d="M344 1077l131 285h146l-240 -307zM281 938l6 -104q130 124 301 124q60 0 107 -17.5t75 -45t46.5 -66t25 -76.5t6.5 -81v-672h-141v676q0 72 -36.5 119t-103.5 47q-160 0 -276 -119v-723h-146v938h136z" />
    <glyph glyph-name="Ncommaaccent" unicode="&#x145;" horiz-adv-x="1165" 
d="M532 -150l25 150h61l-20 -98q60 -2 111 -42.5t51 -97.5q0 -80 -54.5 -117.5t-132.5 -37.5q-89 0 -167 35l14 61q71 -18 143 -18q44 0 74.5 18.5t30.5 58.5q0 43 -42.5 65.5t-93.5 22.5zM293 1020v-1020h-137v1268h151l567 -1063v1063h136v-1268h-164z" />
    <glyph glyph-name="ncommaaccent" unicode="&#x146;" horiz-adv-x="970" 
d="M451 -150l24 150h62l-19 -98q59 -2 110.5 -42.5t51.5 -97.5q0 -80 -54 -117.5t-132 -37.5q-71 0 -170 35l16 61q70 -18 143 -18q42 0 73.5 19t31.5 58q0 45 -43 65.5t-94 22.5zM281 938l6 -104q130 124 301 124q60 0 107 -17.5t75 -45t46.5 -66t25 -76.5t6.5 -81v-672
h-141v676q0 72 -36.5 119t-103.5 47q-160 0 -276 -119v-723h-146v938h136z" />
    <glyph glyph-name="Ncaron" unicode="&#x147;" horiz-adv-x="1165" 
d="M549 1372l-197 283h70l162 -189l159 187h70l-195 -281h-69zM293 1020v-1020h-137v1268h151l567 -1063v1063h136v-1268h-164z" />
    <glyph glyph-name="ncaron" unicode="&#x148;" horiz-adv-x="970" 
d="M449 1065l-197 285h70l161 -191l160 189h70l-195 -283h-69zM281 938l6 -104q130 124 301 124q60 0 107 -17.5t75 -45t46.5 -66t25 -76.5t6.5 -81v-672h-141v676q0 72 -36.5 119t-103.5 47q-160 0 -276 -119v-723h-146v938h136z" />
    <glyph glyph-name="Omacron" unicode="&#x14c;" horiz-adv-x="1218" 
d="M256 635q0 -80 8 -149.5t31 -144.5t61 -128t103 -87t151 -34t151 34.5t102.5 87.5t61 128t31 144.5t7.5 148.5t-7.5 147.5t-31 143.5t-61 127.5t-102.5 86.5t-151 34q-72 0 -129.5 -22.5t-95.5 -64t-64 -92t-40 -114.5t-19.5 -122.5t-5.5 -123.5zM92 635q0 106 16.5 199
t55.5 178t97 145.5t147.5 96.5t201.5 36t201 -36t147 -97t96.5 -146.5t55 -178t16.5 -197.5t-16.5 -198t-55 -178t-96.5 -146t-147 -97t-201 -36t-201.5 36t-147.5 96.5t-97 145.5t-55.5 178t-16.5 199zM817 1477h-414v77h414v-77z" />
    <glyph glyph-name="omacron" unicode="&#x14d;" horiz-adv-x="980" 
d="M240 467q0 -46 4 -88t14 -87.5t28.5 -82t45.5 -66.5t68.5 -46.5t93.5 -16.5q75 0 127 38t76 103t33 126t9 132t-10.5 131.5t-35.5 119.5t-76 93.5t-123 34.5q-254 0 -254 -391zM84 467q0 102 23.5 188.5t71 155.5t128.5 108t187 39q104 0 183 -39.5t125.5 -109
t69.5 -155.5t23 -187q0 -100 -23 -185.5t-70 -154t-126 -108t-182 -39.5q-106 0 -186.5 38.5t-128.5 106.5t-71.5 154t-23.5 188zM696 1169h-413v78h413v-78z" />
    <glyph glyph-name="Ohungarumlaut" unicode="&#x150;" horiz-adv-x="1216" 
d="M256 633q0 -541 354 -541q86 0 151 34.5t102 87t60 128t30.5 144t7.5 147.5q0 65 -5.5 123t-19 121.5t-39.5 114t-63.5 92t-94.5 64.5t-129 23q-354 0 -354 -538zM92 633q0 106 16.5 199t55.5 178t97 145.5t147.5 96.5t201.5 36q111 0 200 -36t147 -97t96 -146t54.5 -178
t16.5 -198t-16.5 -197.5t-54.5 -178t-96 -146.5t-147 -97.5t-200 -36.5q-112 0 -201.5 36t-147.5 97t-97 146t-55.5 178t-16.5 199zM332 1391l139 280h145l-227 -313zM604 1391l139 282h142l-226 -315z" />
    <glyph glyph-name="ohungarumlaut" unicode="&#x151;" horiz-adv-x="980" 
d="M240 465q0 -58 6.5 -109t23.5 -103.5t44.5 -90t73.5 -61t106 -23.5q58 0 102.5 24t71.5 61.5t44 90t23 103.5t6 108q0 56 -6 106.5t-23 104t-44 92t-71.5 63.5t-102.5 25q-60 0 -106 -24.5t-73 -63t-44.5 -92t-24 -104.5t-6.5 -107zM84 465q0 103 23.5 189.5t71 155
t128.5 107.5t187 39q84 0 152.5 -26.5t114.5 -71.5t77 -108t45 -134t14 -151q0 -100 -23 -185.5t-70 -154.5t-126.5 -108.5t-183.5 -39.5q-105 0 -185.5 38.5t-128.5 107t-72 154.5t-24 188zM217 1083l139 279h146l-228 -311zM489 1083l140 281h141l-225 -313z" />
    <glyph glyph-name="OE" unicode="&#x152;" horiz-adv-x="1732" 
d="M246 635q0 -78 7.5 -146.5t30.5 -143.5t60 -128.5t101 -88t149 -34.5t150 34.5t102.5 87.5t61 127.5t31 143.5t7.5 148t-7.5 147.5t-31 143t-61 127.5t-102.5 87t-150 34q-84 0 -147.5 -35t-101 -88t-60.5 -128t-31 -143.5t-8 -144.5zM946 1268h735v-117h-581v-418h430
v-117h-430v-499h604v-117h-758v184q-48 -103 -140 -153.5t-241 -50.5q-88 0 -160.5 27t-123 75t-88.5 110t-59.5 137t-31.5 150.5t-10 155.5q0 96 14 185t49 176t87.5 151t135.5 103.5t187 39.5q143 0 230.5 -53.5t150.5 -159.5v191z" />
    <glyph glyph-name="oe" unicode="&#x153;" horiz-adv-x="1611" 
d="M895 512h483q0 65 -13 123.5t-40 109.5t-76 81t-114 30q-54 0 -96 -20.5t-68 -53t-43 -79t-24.5 -92.5t-8.5 -99zM240 467q0 -389 245 -389q248 0 248 395q0 74 -10.5 135.5t-36 120.5t-77 93t-124.5 34q-245 0 -245 -389zM84 467q0 104 24 191t71.5 155t125.5 106.5
t180 38.5q116 0 198.5 -62t129.5 -169q44 107 125 169t197 62q89 0 157.5 -27.5t111.5 -75t70.5 -117t38.5 -146t11 -170.5h-629q2 -71 14.5 -129.5t40 -108.5t77 -78t118.5 -28q137 0 297 61l31 -94q-163 -68 -328 -68q-234 0 -332 228q-49 -105 -131.5 -166.5
t-196.5 -61.5q-102 0 -180 38.5t-125.5 106.5t-71.5 155t-24 190z" />
    <glyph glyph-name="Racute" unicode="&#x154;" horiz-adv-x="1112" 
d="M471 1384l131 285h146l-240 -307zM311 1151v-528h293q64 0 108.5 21t69 61.5t35 90t10.5 115.5q0 240 -225 240h-291zM883 0l-336 506h-238v-506h-153v1268h399q79 0 141.5 -9.5t119 -34t93.5 -65t58.5 -105.5t21.5 -151q0 -153 -66 -257t-208 -126l350 -520h-182z" />
    <glyph glyph-name="racute" unicode="&#x155;" horiz-adv-x="667" 
d="M252 1077l129 285h145l-239 -307zM145 0v938h146v-203q14 54 36.5 93.5t49 63t62 37.5t69.5 18.5t78 4.5q17 0 38.5 -3.5t28.5 -4.5l-12 -121q-47 8 -104 8q-63 0 -109.5 -21.5t-72 -54t-40.5 -82.5t-19.5 -95.5t-4.5 -104.5v-473h-146z" />
    <glyph glyph-name="Rcaron" unicode="&#x158;" horiz-adv-x="1112" 
d="M500 1362l-197 285h70l162 -191l159 189h70l-195 -283h-69zM311 1151v-528h293q64 0 108.5 21t69 61.5t35 90t10.5 115.5q0 240 -225 240h-291zM883 0l-336 506h-238v-506h-153v1270h399q79 0 141.5 -9.5t119 -34.5t93.5 -66t58.5 -106t21.5 -151q0 -153 -66 -257
t-208 -126l350 -520h-182z" />
    <glyph glyph-name="rcaron" unicode="&#x159;" horiz-adv-x="667" 
d="M356 1065l-196 285h69l162 -191l160 189h70l-195 -283h-70zM145 0v938h146v-203q14 54 36.5 93.5t49 63t62 37.5t69.5 18.5t78 4.5q17 0 38.5 -3.5t28.5 -4.5l-12 -121q-47 8 -104 8q-63 0 -109.5 -21.5t-72 -54t-40.5 -82.5t-19.5 -95.5t-4.5 -104.5v-473h-146z" />
    <glyph glyph-name="Sacute" unicode="&#x15a;" horiz-adv-x="954" 
d="M342 1384l131 285h145l-239 -307zM834 1229l-41 -103q-122 45 -275 45q-49 0 -92 -9.5t-80.5 -29.5t-59.5 -58t-22 -89q0 -44 21 -83t57 -69t83 -58t98.5 -55t102.5 -55.5t98 -64t83 -76t57 -96t21 -119.5q0 -110 -59.5 -185.5t-157.5 -109.5t-228 -34q-137 0 -374 55
l24 106q212 -45 330 -45q299 0 299 209q0 47 -21 88.5t-57 72.5t-83 60t-98.5 56t-102.5 55t-98 61.5t-83 72t-57 90.5t-21 112q0 64 21.5 117.5t58.5 90t87 61.5t106 36.5t116 11.5q190 0 347 -61z" />
    <glyph glyph-name="sacute" unicode="&#x15b;" horiz-adv-x="790" 
d="M254 1077l129 285h145l-239 -307zM692 920l-20 -93q-107 19 -252 19q-86 0 -138.5 -27.5t-52.5 -87.5q0 -33 27 -62.5t70.5 -54.5t96 -51.5t105 -58t96 -67.5t70.5 -87.5t27 -111.5q0 -67 -28.5 -118.5t-76.5 -81t-105.5 -44t-121.5 -14.5q-154 0 -328 51l27 90
q155 -31 285 -31q83 0 145 31t62 100q0 57 -50 105t-121 85t-142 76t-121 95.5t-50 126.5q0 117 83.5 183t211.5 66q104 0 163 -7.5t138 -30.5z" />
    <glyph glyph-name="Scedilla" unicode="&#x15e;" horiz-adv-x="954" 
d="M834 1229l-41 -103q-122 45 -275 45q-49 0 -92 -9.5t-80.5 -29.5t-59.5 -58t-22 -89q0 -44 21 -83t57 -69t83 -58t98.5 -55t102.5 -55.5t98 -64t83 -76t57 -96t21 -119.5q0 -153 -109 -235t-289 -92l-14 -80q60 -2 111 -43t51 -99q0 -78 -54.5 -116.5t-129.5 -38.5
q-65 0 -172 35l16 61q75 -16 143 -16q43 0 74 18.5t31 58.5q0 41 -41 63.5t-96 22.5l20 132q-145 3 -360 55l24 106q212 -45 330 -45q299 0 299 209q0 47 -21 88.5t-57 72.5t-83 60t-98.5 56t-102.5 55t-98 61.5t-83 72t-57 90.5t-21 112q0 64 21.5 117.5t58.5 90t87 61.5
t106 36.5t116 11.5q190 0 347 -61z" />
    <glyph glyph-name="scedilla" unicode="&#x15f;" horiz-adv-x="790" 
d="M692 920l-20 -93q-107 19 -252 19q-86 0 -138.5 -27.5t-52.5 -87.5q0 -33 27 -62.5t70.5 -54.5t96 -51.5t105 -58t96 -67.5t70.5 -87.5t27 -111.5q0 -122 -85.5 -185.5t-211.5 -70.5l-16 -84q60 -2 110.5 -42t50.5 -98q0 -54 -28.5 -90.5t-68 -50.5t-87.5 -14
q-77 0 -172 35l16 61q71 -18 144 -18q42 0 73 19t31 58q0 41 -40.5 64.5t-86.5 23.5h-10l22 134q-147 5 -301 51l27 90q155 -31 285 -31q83 0 145 31t62 100q0 57 -50 105t-121 85t-142 76t-121 95.5t-50 126.5q0 117 83.5 183t211.5 66q104 0 163 -7.5t138 -30.5z" />
    <glyph glyph-name="Scaron" unicode="&#x160;" horiz-adv-x="954" 
d="M446 1362l-196 285h69l162 -191l160 189h70l-195 -283h-70zM834 1229l-41 -103q-122 45 -275 45q-49 0 -92 -9.5t-80.5 -29.5t-59.5 -58t-22 -89q0 -44 21 -83t57 -69t83 -58t98.5 -55t102.5 -55.5t98 -64t83 -76t57 -96t21 -119.5q0 -110 -59.5 -185.5t-157.5 -109.5
t-228 -34q-137 0 -374 55l24 106q212 -45 330 -45q299 0 299 209q0 47 -21 88.5t-57 72.5t-83 60t-98.5 56t-102.5 55t-98 61.5t-83 72t-57 90.5t-21 112q0 64 21.5 117.5t58.5 90t87 61.5t106 36.5t116 11.5q190 0 347 -61z" />
    <glyph glyph-name="scaron" unicode="&#x161;" horiz-adv-x="790" 
d="M358 1065l-196 285h69l162 -191l160 189h70l-195 -283h-70zM692 920l-20 -93q-107 19 -252 19q-86 0 -138.5 -27.5t-52.5 -87.5q0 -33 27 -62.5t70.5 -54.5t96 -51.5t105 -58t96 -67.5t70.5 -87.5t27 -111.5q0 -67 -28.5 -118.5t-76.5 -81t-105.5 -44t-121.5 -14.5
q-154 0 -328 51l27 90q155 -31 285 -31q83 0 145 31t62 100q0 57 -50 105t-121 85t-142 76t-121 95.5t-50 126.5q0 117 83.5 183t211.5 66q104 0 163 -7.5t138 -30.5z" />
    <glyph glyph-name="Tcommaaccent" unicode="&#x162;" horiz-adv-x="905" 
d="M403 -150l25 150h-47v1151h-361v117h865v-117h-350v-1151h-46l-18 -98q59 -2 110.5 -42.5t51.5 -97.5q0 -54 -28.5 -90.5t-68 -50.5t-87.5 -14q-74 0 -173 35l17 61q71 -18 143 -18q42 0 73.5 19t31.5 58q0 31 -25 52t-53.5 28t-59.5 8z" />
    <glyph glyph-name="tcommaaccent" unicode="&#x163;" horiz-adv-x="610" 
d="M592 831h-307v-573q0 -168 135 -168q56 0 162 27l26 -97q-131 -32 -211 -34l-14 -84q59 -2 110.5 -42.5t51.5 -97.5q0 -79 -54.5 -117t-130.5 -38q-73 0 -172 35l17 61q71 -18 143 -18q42 0 73.5 19t31.5 58q0 31 -25 52t-53.5 28t-59.5 8l23 140q-201 28 -201 315v526
h-112v107h116v221l144 39v-260h307v-107z" />
    <glyph glyph-name="Tcaron" unicode="&#x164;" horiz-adv-x="905" 
d="M418 1372l-197 283h70l162 -189l159 187h70l-195 -281h-69zM20 1268h865v-117h-350v-1151h-154v1151h-361v117z" />
    <glyph glyph-name="tcaron" unicode="&#x165;" horiz-adv-x="739" 
d="M645 946l-20 342h106l-18 -342h-68zM592 831h-307v-573q0 -168 135 -168q56 0 162 27l26 -97q-144 -34 -215 -34q-134 0 -195 80.5t-61 238.5v526h-112v107h116v221l144 39v-260h307v-107z" />
    <glyph glyph-name="Umacron" unicode="&#x16a;" horiz-adv-x="1175" 
d="M145 340v928h156v-926q0 -127 79.5 -187.5t209.5 -60.5q129 0 206.5 60.5t77.5 185.5v928h156v-924q0 -95 -34.5 -167.5t-96 -115t-139 -63.5t-170.5 -21t-170.5 20t-140.5 62t-98.5 113.5t-35.5 167.5zM795 1477h-414v77h414v-77z" />
    <glyph glyph-name="umacron" unicode="&#x16b;" horiz-adv-x="972" 
d="M682 1169h-414v78h414v-78zM686 80q-82 -47 -152 -73.5t-149 -26.5q-60 0 -107 17.5t-75 45t-46.5 66t-25 76.5t-6.5 81v672h141v-676q0 -72 36.5 -119t103.5 -47q176 0 276 74v768h145v-938h-133z" />
    <glyph glyph-name="Uring" unicode="&#x16e;" horiz-adv-x="1175" 
d="M145 340v928h156v-926q0 -127 79.5 -187.5t209.5 -60.5q129 0 206.5 60.5t77.5 185.5v928h156v-924q0 -95 -34.5 -167.5t-96 -115t-139 -63.5t-170.5 -21t-170.5 20t-140.5 62t-98.5 113.5t-35.5 167.5zM485 1520q0 -40 28.5 -69.5t68.5 -29.5q39 0 66.5 30t27.5 69
q0 40 -27.5 69t-66.5 29q-40 0 -68.5 -29t-28.5 -69zM428 1520q0 63 45.5 108t108.5 45t107 -45t44 -108q0 -64 -43.5 -109t-107.5 -45q-63 0 -108.5 45.5t-45.5 108.5z" />
    <glyph glyph-name="uring" unicode="&#x16f;" horiz-adv-x="972" 
d="M381 1212q0 -40 27.5 -69t68.5 -29q39 0 66.5 29.5t27.5 68.5q0 40 -27.5 69.5t-66.5 29.5t-67.5 -29.5t-28.5 -69.5zM324 1212q0 63 45 108.5t108 45.5t107.5 -45.5t44.5 -108.5t-44.5 -108t-107.5 -45q-64 0 -108.5 45t-44.5 108zM686 80q-82 -47 -152 -73.5
t-149 -26.5q-60 0 -107 17.5t-75 45t-46.5 66t-25 76.5t-6.5 81v672h141v-676q0 -72 36.5 -119t103.5 -47q176 0 276 74v768h145v-938h-133z" />
    <glyph glyph-name="Uhungarumlaut" unicode="&#x170;" horiz-adv-x="1175" 
d="M145 340v928h156v-926q0 -127 79.5 -187.5t209.5 -60.5q129 0 206.5 60.5t77.5 185.5v928h156v-924q0 -95 -34.5 -167.5t-96 -115t-139 -63.5t-170.5 -21t-170.5 20t-140.5 62t-98.5 113.5t-35.5 167.5zM453 1671h145l-229 -313l-56 33zM725 1673h141l-225 -315l-57 33z
" />
    <glyph glyph-name="uhungarumlaut" unicode="&#x171;" horiz-adv-x="972" 
d="M207 1083l139 279h146l-228 -311zM479 1083l139 281h142l-225 -313zM686 80q-82 -47 -152 -73.5t-149 -26.5q-60 0 -107 17.5t-75 45t-46.5 66t-25 76.5t-6.5 81v672h141v-676q0 -72 36.5 -119t103.5 -47q176 0 276 74v768h145v-938h-133z" />
    <glyph glyph-name="Uogonek" unicode="&#x172;" horiz-adv-x="1175" 
d="M145 340v928h156v-926q0 -127 79 -187.5t210 -60.5q129 0 206.5 60.5t77.5 185.5v928h156v-924q0 -148 -78.5 -234t-214.5 -116q-31 -29 -47.5 -46t-40.5 -49.5t-31 -58.5q-29 -55 -24 -88q3 -30 27.5 -48.5t58.5 -18.5q48 0 108 39l39 -60q-91 -61 -168 -61
q-69 0 -115 40t-46 103q0 100 151 236q-45 -5 -59 -5q-93 0 -170.5 20t-140.5 62t-98.5 113.5t-35.5 167.5z" />
    <glyph glyph-name="uogonek" unicode="&#x173;" horiz-adv-x="972" 
d="M686 80q-82 -47 -152 -73.5t-149 -26.5q-60 0 -107 17.5t-75 45t-46.5 66t-25 76.5t-6.5 81v672h141v-676q0 -72 36.5 -119t103.5 -47q176 0 276 74v768h145v-938h-36q-48 -45 -72.5 -71.5t-46 -64.5t-21.5 -73q0 -42 25 -67t67 -25q47 0 107 39l41 -60q-91 -61 -170 -61
q-68 0 -114 41t-46 104q0 59 40 113.5t116 124.5h-23z" />
    <glyph glyph-name="Ydieresis" unicode="&#x178;" horiz-adv-x="937" 
d="M387 1513q0 -29 -17.5 -47t-45.5 -18q-30 0 -48 19t-18 49q0 28 18.5 45.5t47.5 17.5t46 -18t17 -48zM678 1513q0 -29 -18 -47t-46 -18q-30 0 -47.5 19t-17.5 49q0 28 18 45.5t47 17.5t46.5 -18.5t17.5 -47.5zM545 608v-608h-154v608l-379 662h158l297 -525l299 525h158z
" />
    <glyph glyph-name="Zacute" unicode="&#x179;" horiz-adv-x="876" 
d="M315 1384l131 285h146l-240 -307zM72 1151v117h782l-606 -1151h577v-117h-802l616 1151h-567z" />
    <glyph glyph-name="zacute" unicode="&#x17a;" horiz-adv-x="714" 
d="M358 1362h146l-240 -307l-37 22zM496 831h-445v107h666l-490 -829h471v-109h-698z" />
    <glyph glyph-name="Zdotaccent" unicode="&#x17b;" horiz-adv-x="876" 
d="M543 1513q0 -40 -25 -65t-65 -25q-39 0 -63.5 26.5t-24.5 66.5q0 38 25 63t63 25q41 0 65.5 -25.5t24.5 -65.5zM72 1151v117h782l-606 -1151h577v-117h-802l616 1151h-567z" />
    <glyph glyph-name="zdotaccent" unicode="&#x17c;" horiz-adv-x="714" 
d="M455 1206q0 -40 -25 -65t-65 -25q-39 0 -64 26t-25 66q0 38 25.5 63t63.5 25q41 0 65.5 -25t24.5 -65zM496 831h-445v107h666l-490 -829h471v-109h-698z" />
    <glyph glyph-name="Zcaron" unicode="&#x17d;" horiz-adv-x="876" 
d="M420 1372l-197 283h70l162 -189l159 187h70l-195 -281h-69zM72 1151v117h782l-606 -1151h577v-117h-802l616 1151h-567z" />
    <glyph glyph-name="zcaron" unicode="&#x17e;" horiz-adv-x="714" 
d="M332 1065l-197 285h70l162 -191l159 189h70l-195 -283h-69zM496 831h-445v107h666l-490 -829h471v-109h-698z" />
    <glyph glyph-name="florin" unicode="&#x192;" horiz-adv-x="985" 
d="M37 -326l26 90q43 -12 89 -12q149 0 206 332l138 766h-164v92h180q10 67 24.5 123t42 116t63.5 101t93 67.5t127 26.5q77 0 193 -33l-23 -104q-110 25 -164 25q-44 0 -77.5 -20t-52.5 -42.5t-36 -74.5t-23 -80t-18 -95q-1 -7 -2 -10h263v-92h-277l-172 -903
q-9 -50 -29 -100t-51 -97t-76.5 -76.5t-97.5 -29.5q-68 0 -182 30z" />
    <glyph glyph-name="Scommaaccent" unicode="&#x218;" horiz-adv-x="954" 
d="M834 1229l-41 -103q-122 45 -275 45q-49 0 -92 -9.5t-80.5 -29.5t-59.5 -58t-22 -89q0 -44 21 -83t57 -69t83 -58t98.5 -55t102.5 -55.5t98 -64t83 -76t57 -96t21 -119.5q0 -110 -59.5 -185.5t-157.5 -109.5t-228 -34q-137 0 -374 55l24 106q212 -45 330 -45
q299 0 299 209q0 47 -21 88.5t-57 72.5t-83 60t-98.5 56t-102.5 55t-98 61.5t-83 72t-57 90.5t-21 112q0 64 21.5 117.5t58.5 90t87 61.5t106 36.5t116 11.5q190 0 347 -61zM446 -78l86 15q21 -139 21 -181q0 -75 -27.5 -121.5t-91.5 -91.5l-24 39q67 49 67 144
q0 17 -3 39.5t-6.5 41t-10.5 54.5t-11 61z" />
    <glyph glyph-name="scommaaccent" unicode="&#x219;" horiz-adv-x="790" 
d="M334 -78l86 15q20 -132 20 -181q0 -76 -27 -122.5t-91 -90.5l-25 39q68 49 68 144q0 17 -3 39.5t-6.5 41t-10.5 54.5t-11 61zM692 920l-20 -93q-107 19 -252 19q-86 0 -138.5 -27.5t-52.5 -87.5q0 -33 27 -62.5t70.5 -54.5t96 -51.5t105 -58t96 -67.5t70.5 -87.5
t27 -111.5q0 -67 -28.5 -118.5t-76.5 -81t-105.5 -44t-121.5 -14.5q-154 0 -328 51l27 90q155 -31 285 -31q83 0 145 31t62 100q0 57 -50 105t-121 85t-142 76t-121 95.5t-50 126.5q0 117 83.5 183t211.5 66q104 0 163 -7.5t138 -30.5z" />
    <glyph glyph-name="uni021A" unicode="&#x21a;" horiz-adv-x="905" 
d="M20 1270h865v-119h-350v-1151h-154v1151h-361v119zM401 -78l86 15q21 -139 21 -181q0 -75 -27.5 -121.5t-91.5 -91.5l-24 39q67 49 67 144q0 17 -3 39.5t-6.5 41t-10.5 54.5t-11 61z" />
    <glyph glyph-name="uni021B" unicode="&#x21b;" horiz-adv-x="610" 
d="M326 -78l86 15q20 -132 20 -181q0 -75 -27.5 -121.5t-91.5 -91.5l-24 39q67 49 67 144q0 17 -3 39.5t-6 40.5t-10 56t-11 60zM592 831h-307v-573q0 -168 135 -168q56 0 162 27l26 -97q-144 -34 -215 -34q-134 0 -195 80.5t-61 238.5v526h-112v107h116v221l144 39v-260
h307v-107z" />
    <glyph glyph-name="circumflex" unicode="&#x2c6;" horiz-adv-x="610" 
d="M305 1288l-162 -186h-69l196 280h72l193 -284h-72z" />
    <glyph glyph-name="caron" unicode="&#x2c7;" horiz-adv-x="610" 
d="M270 1112l-196 283h69l162 -189l160 187h70l-195 -281h-70z" />
    <glyph glyph-name="breve" unicode="&#x2d8;" horiz-adv-x="610" 
d="M63 1372h93q0 -58 45 -100.5t104 -42.5q60 0 105 42t45 101h92q0 -97 -72 -166t-170 -69q-97 0 -169.5 69.5t-72.5 165.5z" />
    <glyph glyph-name="dotaccent" unicode="&#x2d9;" horiz-adv-x="542" 
d="M360 1362q0 -40 -25 -65t-65 -25q-39 0 -63.5 26t-24.5 66q0 38 25 63t63 25q41 0 65.5 -25t24.5 -65z" />
    <glyph glyph-name="ring" unicode="&#x2da;" horiz-adv-x="448" 
d="M131 1253q0 -40 28 -69t68 -29q39 0 67 29.5t28 68.5q0 40 -27.5 69t-67.5 30q-40 0 -68 -30t-28 -69zM74 1253q0 63 45 108.5t108 45.5t107.5 -45.5t44.5 -108.5t-44 -108t-108 -45q-63 0 -108 45t-45 108z" />
    <glyph glyph-name="ogonek" unicode="&#x2db;" horiz-adv-x="436" 
d="M217 10h74q-52 -48 -78.5 -75.5t-50 -67.5t-23.5 -76q0 -42 25 -67t67 -25q47 0 107 39l41 -60q-91 -61 -170 -61q-68 0 -114 41t-46 104q0 27 10.5 54.5t23.5 49t39.5 51t43.5 46t51 47.5z" />
    <glyph glyph-name="tilde" unicode="&#x2dc;" horiz-adv-x="663" 
d="M141 1237l-65 18q17 67 52 113.5t93 46.5q35 0 62.5 -13t45.5 -31.5t34.5 -37.5t36 -32t42.5 -13q51 0 80 94l66 -20q-10 -31 -21 -55t-28.5 -50t-42.5 -40.5t-56 -14.5q-37 0 -70.5 20t-53.5 43.5t-46 43.5t-51 20q-53 0 -78 -92z" />
    <glyph glyph-name="hungarumlaut" unicode="&#x2dd;" horiz-adv-x="655" 
d="M61 1114l140 281h145l-227 -314zM334 1114l139 283h141l-225 -316z" />
    <glyph glyph-name="afii57799" unicode="&#x5b0;" 
d="M94 -229q-25 0 -41 15.5t-16 41.5t16 40.5t43 14.5q25 0 40.5 -15t15.5 -40q0 -26 -16.5 -41.5t-41.5 -15.5zM94 -446q-25 0 -41 15t-16 40q0 26 16.5 41.5t42.5 15.5q25 0 40.5 -15.5t15.5 -41.5t-16.5 -40.5t-41.5 -14.5z" />
    <glyph glyph-name="afii57801" unicode="&#x5b1;" 
d="M348 -227q-25 0 -40 15.5t-15 41.5q0 25 15.5 40t41.5 15q25 0 40.5 -15.5t15.5 -41.5q0 -24 -16.5 -39.5t-41.5 -15.5zM618 -231q-25 0 -40 15t-15 40q0 26 16.5 41.5t41.5 15.5t41 -16t16 -41q0 -26 -16.5 -40.5t-43.5 -14.5zM618 -451q-25 0 -40 15.5t-15 40.5
q0 26 16.5 41.5t41.5 15.5t41 -15.5t16 -41.5t-16.5 -41t-43.5 -15zM94 -227q-26 0 -41.5 15.5t-15.5 41.5q0 25 16 40t41 15q26 0 42 -15.5t16 -41.5q0 -24 -16.5 -39.5t-41.5 -15.5zM225 -453q-25 0 -41 16.5t-16 41.5q0 26 16 40.5t43 14.5q25 0 40.5 -15t15.5 -40
q0 -26 -16.5 -42t-41.5 -16z" />
    <glyph glyph-name="afii57800" unicode="&#x5b2;" 
d="M543 -231q-25 0 -40.5 15t-15.5 40q0 26 16.5 41.5t41.5 15.5t41 -16t16 -41q0 -26 -16 -40.5t-43 -14.5zM543 -451q-25 0 -40.5 15.5t-15.5 40.5q0 26 16.5 41.5t41.5 15.5t41 -15.5t16 -41.5t-16 -41t-43 -15zM10 -209v78h389v-78h-389z" />
    <glyph glyph-name="afii57802" unicode="&#x5b3;" 
d="M543 -231q-25 0 -40.5 15t-15.5 40q0 26 16.5 41.5t41.5 15.5t41 -16t16 -41q0 -26 -16 -40.5t-43 -14.5zM543 -451q-25 0 -40.5 15.5t-15.5 40.5q0 26 16.5 41.5t41.5 15.5t41 -15.5t16 -41.5t-16 -41t-43 -15zM10 -211v80h389v-80h-139v-162h-104v162h-146z" />
    <glyph glyph-name="afii57793" unicode="&#x5b4;" 
d="M119 -227q-25 0 -40.5 15.5t-15.5 41.5t16.5 40.5t41.5 14.5t41 -15t16 -40q0 -26 -16.5 -41.5t-42.5 -15.5z" />
    <glyph glyph-name="afii57794" unicode="&#x5b5;" 
d="M348 -227q-25 0 -40 15.5t-15 41.5q0 25 15.5 40t41.5 15q25 0 40.5 -15.5t15.5 -41.5q0 -24 -16.5 -39.5t-41.5 -15.5zM94 -227q-26 0 -41.5 15.5t-15.5 41.5q0 25 16 40t41 15q26 0 42 -15.5t16 -41.5q0 -24 -16.5 -39.5t-41.5 -15.5z" />
    <glyph glyph-name="afii57795" unicode="&#x5b6;" 
d="M348 -229q-25 0 -40 16t-15 41q0 26 15.5 41.5t41.5 15.5q25 0 40.5 -16t15.5 -41q0 -26 -16.5 -41.5t-41.5 -15.5zM94 -229q-26 0 -41.5 16t-15.5 41q0 26 16 41.5t41 15.5q26 0 42 -16t16 -41q0 -26 -16.5 -41.5t-41.5 -15.5zM225 -453q-25 0 -41 15.5t-16 40.5
q0 26 16.5 41.5t42.5 15.5q25 0 40.5 -15.5t15.5 -41.5t-16.5 -41t-41.5 -15z" />
    <glyph glyph-name="afii57798" unicode="&#x5b7;" 
d="M10 -209v78h389v-78h-389z" />
    <glyph glyph-name="afii57797" unicode="&#x5b8;" 
d="M10 -211v80h389v-80h-139v-162h-104v162h-146z" />
    <glyph glyph-name="afii57806" unicode="&#x5b9;" 
d="M92 1081q-25 0 -41 15.5t-16 40.5q0 26 16.5 41.5t42.5 15.5q25 0 40.5 -16t15.5 -41q0 -26 -16.5 -41t-41.5 -15z" />
    <glyph glyph-name="uni05BA" unicode="&#x5ba;" 
d="M-74 1155q-25 0 -41 15.5t-16 41.5t16 41t43 15q25 0 40.5 -15.5t15.5 -40.5q0 -26 -16.5 -41.5t-41.5 -15.5z" />
    <glyph glyph-name="afii57796" unicode="&#x5bb;" 
d="M90 -188q-26 0 -41.5 15.5t-15.5 41.5q0 25 16 40t41 15q26 0 41.5 -15.5t15.5 -41.5q0 -25 -16 -40t-41 -15zM389 -461q-26 0 -41.5 16.5t-15.5 41.5q0 26 16 41.5t41 15.5q26 0 41.5 -16t15.5 -41q0 -26 -16 -42t-41 -16zM238 -322q-25 0 -41.5 15.5t-16.5 40.5
q0 26 16.5 41.5t43.5 15.5q25 0 40 -15.5t15 -41.5t-16 -41t-41 -15z" />
    <glyph glyph-name="afii57807" unicode="&#x5bc;" 
d="M92 381q-25 0 -41 15t-16 40q0 26 16.5 42t42.5 16q25 0 40.5 -16.5t15.5 -41.5q0 -26 -16.5 -40.5t-41.5 -14.5z" />
    <glyph glyph-name="afii57839" unicode="&#x5bd;" horiz-adv-x="450" 
d="M236 -92v-174h-43v174h43z" />
    <glyph glyph-name="afii57645" unicode="&#x5be;" horiz-adv-x="675" 
d="M594 848h-512v135h512v-135z" />
    <glyph glyph-name="afii57841" unicode="&#x5bf;" horiz-adv-x="649" 
d="M137 1159v80h387v-80h-387z" />
    <glyph glyph-name="afii57842" unicode="&#x5c0;" horiz-adv-x="387" 
d="M238 1024v-1024h-88v1024h88z" />
    <glyph glyph-name="afii57804" unicode="&#x5c1;" 
d="M586 1079q-25 0 -40.5 16t-15.5 42t16.5 40.5t41.5 14.5t41 -15t16 -40q0 -26 -16.5 -42t-42.5 -16z" />
    <glyph glyph-name="afii57803" unicode="&#x5c2;" 
d="M213 1155q-25 0 -41 15.5t-16 41.5t16 41t43 15q25 0 40 -15.5t15 -40.5q0 -26 -16 -41.5t-41 -15.5z" />
    <glyph glyph-name="afii57658" unicode="&#x5c3;" horiz-adv-x="538" 
d="M270 711q-41 0 -66.5 25.5t-25.5 66.5t26.5 66.5t67.5 25.5q40 0 66.5 -26t26.5 -66q0 -42 -27 -67t-68 -25zM270 43q-41 0 -66.5 25.5t-25.5 66.5t26.5 66.5t67.5 25.5q40 0 66.5 -26t26.5 -66q0 -42 -27 -67t-68 -25z" />
    <glyph glyph-name="uni05C4" unicode="&#x5c4;" 
d="M383 1081q-25 0 -41 15.5t-16 40.5q0 26 16.5 41.5t42.5 15.5q25 0 40 -16t15 -41q0 -26 -16 -41t-41 -15z" />
    <glyph glyph-name="afii57664" unicode="&#x5d0;" horiz-adv-x="1030" 
d="M264 0h-153q2 149 10 432q3 101 47.5 156t140.5 92l-209 303h172l312 -455q44 17 72.5 38.5t46.5 44t29 63.5t16.5 77.5t11.5 104.5l12 127h154q-4 -31 -10 -88q-11 -96 -17.5 -140.5t-25.5 -108t-46.5 -93t-77 -56.5t-120.5 -38l321 -459h-170l-420 596
q-46 -31 -65 -70.5t-21 -99.5z" />
    <glyph glyph-name="afii57665" unicode="&#x5d1;" horiz-adv-x="864" 
d="M94 852l-8 121q207 22 342 22q98 0 177 -53t97 -141q9 -43 9 -96v-402q0 -107 16 -170h96v-133h-782v133h555q-39 100 -39 186v437q0 43 -40.5 74.5t-86.5 31.5q-185 0 -336 -10z" />
    <glyph glyph-name="afii57666" unicode="&#x5d2;" horiz-adv-x="647" 
d="M160 0h-148q28 77 47 120t48 87t62.5 66t82.5 37.5t117 19.5q-37 112 -37 344v182h-203v127h352v-233q0 -330 56 -498q57 -158 98 -252h-150l-94 233q-98 -14 -145 -65t-86 -168z" />
    <glyph glyph-name="afii57667" unicode="&#x5d3;" horiz-adv-x="843" 
d="M559 856h-518v127h762v-127h-115q-38 -42 -47.5 -79.5t-9.5 -121.5v-655h-156v610q0 104 15 147t69 99z" />
    <glyph glyph-name="afii57668" unicode="&#x5d4;" horiz-adv-x="985" 
d="M692 856h-577v127h731v-983h-154v856zM125 0v498h154v-498h-154z" />
    <glyph glyph-name="afii57669" unicode="&#x5d5;" horiz-adv-x="434" 
d="M139 0v983h156v-983h-156z" />
    <glyph glyph-name="afii57670" unicode="&#x5d6;" horiz-adv-x="659" 
d="M309 856h-268v127h577v-127h-206q-72 -75 -72 -209q0 -53 10 -121l76 -526h-152q-13 92 -35.5 239.5t-29.5 202.5q-19 141 -19 164q0 154 119 250z" />
    <glyph glyph-name="afii57671" unicode="&#x5d7;" horiz-adv-x="1056" 
d="M293 852v-852h-154v975q39 2 113 6.5t120 7t110 4.5t118 2q55 0 111.5 -16t107 -46t82 -81t31.5 -115v-737h-156v735q0 57 -55 91t-115 34q-174 0 -313 -8z" />
    <glyph glyph-name="afii57672" unicode="&#x5d8;" horiz-adv-x="1083" 
d="M106 983h156l43 -856q37 0 117 -2t117 -2q94 0 162.5 51t78.5 141l64 541h-297v127h446v-57q0 -61 -18 -242l-41 -393q-11 -100 -73 -170t-147 -100.5t-186 -30.5q-53 0 -115 2t-139 5.5t-116 4.5z" />
    <glyph glyph-name="afii57673" unicode="&#x5d9;" horiz-adv-x="372" 
d="M109 457v526h155v-526h-155z" />
    <glyph glyph-name="afii57674" unicode="&#x5da;" horiz-adv-x="808" 
d="M25 856v121q304 27 389 27q106 0 188 -71t82 -175v-1094h-152v1094q0 44 -38 77t-86 33q-121 0 -383 -12z" />
    <glyph glyph-name="afii57675" unicode="&#x5db;" horiz-adv-x="833" 
d="M72 852l-9 121q43 3 128.5 10t143.5 10.5t111 3.5q108 0 191.5 -69t83.5 -174v-428l-31 -326h-649v133h526v610q0 53 -37.5 87t-89.5 34q-156 0 -368 -12z" />
    <glyph glyph-name="afii57676" unicode="&#x5dc;" horiz-adv-x="800" 
d="M41 856v393h154v-266h565v-125l-246 -569q-34 -79 -48.5 -141.5t-14.5 -147.5h-138q0 164 70 322l240 534h-582z" />
    <glyph glyph-name="afii57677" unicode="&#x5dd;" horiz-adv-x="1079" 
d="M293 852v-719h510v612q0 55 -55.5 87t-124.5 32q-48 0 -103.5 -2t-123 -5.5t-103.5 -4.5zM139 0v975q46 2 220 12t268 10q42 0 86 -8.5t87.5 -28t77.5 -47t55 -69t21 -90.5v-754h-815z" />
    <glyph glyph-name="afii57678" unicode="&#x5de;" horiz-adv-x="1056" 
d="M125 905l-27 78h160q23 -71 37 -129q76 67 160 104t194 37q283 0 283 -290v-705h-402v133h248v574q0 81 -46 121t-124 40q-141 0 -295 -98q2 -18 2 -59q0 -30 -67 -711h-156l53 514q1 11 6.5 58t9 87t3.5 60q0 67 -39 186z" />
    <glyph glyph-name="afii57679" unicode="&#x5df;" horiz-adv-x="434" 
d="M139 -360v1343h156v-1343h-156z" />
    <glyph glyph-name="afii57680" unicode="&#x5e0;" horiz-adv-x="630" 
d="M338 856h-219v127h373v-582q0 -170 49 -292v-109h-512v133h377q-68 104 -68 326v397z" />
    <glyph glyph-name="afii57681" unicode="&#x5e1;" horiz-adv-x="1075" 
d="M768 342l59 514h-559l25 -725q25 -1 107 -4.5t128 -3.5q100 0 164 59.5t76 159.5zM532 -10q-56 0 -118.5 2t-139 5.5t-118.5 4.5q-8 187 -26.5 528t-23.5 453h879l-8 -139q-2 -37 -10.5 -112.5t-10.5 -92.5l-36 -346q-17 -146 -126 -224.5t-262 -78.5z" />
    <glyph glyph-name="afii57682" unicode="&#x5e2;" horiz-adv-x="946" 
d="M72 983h155l150 -588q10 -39 18 -64.5t25.5 -64.5t43.5 -63t60 -31q34 18 61 59t33 82l101 670h145l-98 -686q-13 -90 -81 -159t-157 -101l-487 -174v129l385 133q-60 18 -109 73t-67 119z" />
    <glyph glyph-name="afii57683" unicode="&#x5e3;" horiz-adv-x="978" 
d="M246 854v-420h-156v541q42 2 207.5 12t253.5 10q73 0 141 -27.5t115 -84.5t47 -131v-1116h-158v1110q0 52 -46.5 84t-104.5 32q-49 0 -299 -10z" />
    <glyph glyph-name="afii57684" unicode="&#x5e4;" horiz-adv-x="995" 
d="M264 852v-395h-155v518q41 2 213 12t260 10q115 0 208 -66.5t93 -176.5v-361q0 -32 -11 -145l-24 -248h-752v133h633v617q0 51 -48.5 82.5t-107.5 31.5q-44 0 -95.5 -2t-116.5 -5.5t-97 -4.5z" />
    <glyph glyph-name="afii57685" unicode="&#x5e5;" horiz-adv-x="880" 
d="M12 983h172l277 -485q25 8 44 18t32.5 18t24.5 23.5t17 24t13 31.5t10 34.5t10 42.5l29 293h160l-39 -258q-12 -56 -27.5 -96t-32 -66.5t-48 -50t-57.5 -38t-77 -38.5l-22 -10l159 -276q41 -89 57.5 -168.5t16.5 -206.5v-146h-137v95q0 144 -16 219.5t-70 171.5
q-46 79 -155.5 268t-189 328.5t-151.5 271.5z" />
    <glyph glyph-name="afii57686" unicode="&#x5e6;" horiz-adv-x="913" 
d="M41 983h174l285 -479q39 26 65 54.5t40.5 55t24.5 69t15 77.5t14 101.5t19 121.5h156l-13 -76q-43 -257 -87 -341.5t-187 -131.5l92 -133q80 -114 178 -149v-152h-770v133h627q-5 3 -27.5 15t-35.5 19t-36 22t-38.5 28.5t-32.5 34t-29 41.5z" />
    <glyph glyph-name="afii57687" unicode="&#x5e7;" horiz-adv-x="1067" 
d="M295 856v-1214h-156v1341h838v-133l-66 -588q-5 -49 -28.5 -93t-65 -82t-82 -66t-98.5 -62l-72 100q87 47 137 96.5t58 125.5l59 575h-524z" />
    <glyph glyph-name="afii57688" unicode="&#x5e8;" horiz-adv-x="837" 
d="M543 856h-502v127h657v-983h-155v856z" />
    <glyph glyph-name="afii57689" unicode="&#x5e9;" horiz-adv-x="1288" 
d="M608 983h158q-5 -29 -21 -131t-26.5 -159t-34.5 -130t-53 -112q-71 -93 -170 -93q-67 0 -148 31l23 -256q29 -1 79 -2.5t91.5 -2.5t77.5 -1q138 0 233.5 79t126.5 220q11 48 54.5 249t68.5 308h150l-125 -592q-40 -191 -178.5 -297t-327.5 -106q-77 0 -219 6.5t-172 7.5
q-89 938 -93 981h156l47 -510q36 -16 74 -16q35 0 61.5 13t46 42t33.5 60.5t26 84t19.5 95.5t20 112.5t22.5 118.5z" />
    <glyph glyph-name="afii57690" unicode="&#x5ea;" horiz-adv-x="1069" 
d="M334 0h-316v133h160v846q35 2 190.5 13.5t233.5 11.5q169 0 255.5 -78.5t86.5 -196.5v-729h-156v735q0 60 -54 96.5t-122 36.5q-28 0 -278 -10v-858z" />
    <glyph glyph-name="uni05F3" unicode="&#x5f3;" horiz-adv-x="260" 
d="M246 983l-119 -321l-94 24l76 297h137z" />
    <glyph glyph-name="uni05F4" unicode="&#x5f4;" horiz-adv-x="430" 
d="M428 983l-119 -321l-94 24l76 297h137zM246 983l-119 -321l-94 24l76 297h137z" />
    <glyph glyph-name="uni2000" unicode="&#x2000;" horiz-adv-x="864" 
 />
    <glyph glyph-name="uni2001" unicode="&#x2001;" horiz-adv-x="1729" 
 />
    <glyph glyph-name="uni2002" unicode="&#x2002;" horiz-adv-x="864" 
 />
    <glyph glyph-name="uni2003" unicode="&#x2003;" horiz-adv-x="1729" 
 />
    <glyph glyph-name="uni2004" unicode="&#x2004;" horiz-adv-x="576" 
 />
    <glyph glyph-name="uni2005" unicode="&#x2005;" horiz-adv-x="432" 
 />
    <glyph glyph-name="uni2006" unicode="&#x2006;" horiz-adv-x="288" 
 />
    <glyph glyph-name="uni2007" unicode="&#x2007;" horiz-adv-x="288" 
 />
    <glyph glyph-name="uni2008" unicode="&#x2008;" horiz-adv-x="216" 
 />
    <glyph glyph-name="uni2009" unicode="&#x2009;" horiz-adv-x="345" 
 />
    <glyph glyph-name="uni200A" unicode="&#x200a;" horiz-adv-x="96" 
 />
    <glyph glyph-name="uni2010" unicode="&#x2010;" horiz-adv-x="681" 
d="M575 432h-469v90h469v-90z" />
    <glyph glyph-name="uni2011" unicode="&#x2011;" horiz-adv-x="681" 
d="M575 432h-469v90h469v-90z" />
    <glyph glyph-name="figuredash" unicode="&#x2012;" horiz-adv-x="681" 
d="M575 432h-469v90h469v-90z" />
    <glyph glyph-name="endash" unicode="&#x2013;" horiz-adv-x="1007" 
d="M952 561h-899v90h899v-90z" />
    <glyph glyph-name="emdash" unicode="&#x2014;" horiz-adv-x="1419" 
d="M1366 455h-1315v90h1315v-90z" />
    <glyph glyph-name="quoteleft" unicode="&#x2018;" horiz-adv-x="268" 
d="M172 836l-111 -17q-18 126 -18 195q0 93 30.5 150t106.5 114l33 -49q-72 -52 -72 -172q0 -52 31 -221z" />
    <glyph glyph-name="quoteright" unicode="&#x2019;" horiz-adv-x="241" 
d="M72 1257l110 21q23 -142 23 -207q0 -90 -33 -144t-111 -110l-30 51q75 54 75 158q0 50 -34 231z" />
    <glyph glyph-name="quotesinglbase" unicode="&#x201a;" horiz-adv-x="299" 
d="M96 233l111 21q22 -136 22 -207q0 -90 -32.5 -144.5t-110.5 -109.5l-31 51q76 55 76 158q0 22 -3.5 52.5t-6.5 47.5t-12.5 67t-12.5 64z" />
    <glyph glyph-name="quotedblleft" unicode="&#x201c;" horiz-adv-x="491" 
d="M156 836l-111 -17q-18 126 -18 195q0 93 30.5 150t106.5 114l33 -49q-72 -52 -72 -172q0 -52 31 -221zM395 838l-110 -21q-23 142 -23 207q0 90 33 144t111 110l30 -51q-76 -55 -76 -158q0 -22 3.5 -52.5t6.5 -47.5t12.5 -67t12.5 -64z" />
    <glyph glyph-name="quotedblright" unicode="&#x201d;" horiz-adv-x="487" 
d="M336 1260l110 16q19 -133 19 -195q0 -93 -30.5 -150t-106.5 -114l-33 49q72 52 72 172q0 53 -31 222zM96 1257l111 21q22 -136 22 -207q0 -90 -32.5 -144.5t-110.5 -109.5l-31 51q76 55 76 158q0 22 -3.5 52.5t-6.5 47.5t-12.5 67t-12.5 64z" />
    <glyph glyph-name="quotedblbase" unicode="&#x201e;" horiz-adv-x="534" 
d="M336 1260l110 16q19 -133 19 -195q0 -93 -30.5 -150t-106.5 -114l-33 49q72 52 72 172q0 53 -31 222zM96 1257l111 21q22 -136 22 -207q0 -90 -32.5 -144.5t-110.5 -109.5l-31 51q76 55 76 158q0 22 -3.5 52.5t-6.5 47.5t-12.5 67t-12.5 64z" />
    <glyph glyph-name="dagger" unicode="&#x2020;" horiz-adv-x="759" 
d="M31 858v90h297v322h112v-322h289v-90h-289v-1198h-112v1198h-297z" />
    <glyph glyph-name="daggerdbl" unicode="&#x2021;" horiz-adv-x="802" 
d="M31 834v110h313v318h113v-318h311v-110h-311v-732h311v-112h-311v-330h-113v330h-313v112h313v732h-313z" />
    <glyph glyph-name="bullet" unicode="&#x2022;" horiz-adv-x="724" 
d="M205 647q0 63 45.5 107.5t111.5 44.5q65 0 111.5 -44.5t46.5 -107.5t-46.5 -108t-111.5 -45q-66 0 -111.5 45t-45.5 108z" />
    <glyph glyph-name="ellipsis" unicode="&#x2026;" horiz-adv-x="1193" 
d="M946 -20q-40 0 -66 26t-26 66q0 42 26.5 67t67.5 25t66.5 -25.5t25.5 -66.5t-26.5 -66.5t-67.5 -25.5zM596 -20q-41 0 -66.5 25.5t-25.5 66.5t26.5 66.5t67.5 25.5q40 0 66 -26t26 -66q0 -42 -26.5 -67t-67.5 -25zM246 -20q-40 0 -66 25.5t-26 66.5t27 66.5t67 25.5
q41 0 66.5 -26t25.5 -66q0 -42 -26 -67t-68 -25z" />
    <glyph glyph-name="uni202F" unicode="&#x202f;" horiz-adv-x="345" 
 />
    <glyph glyph-name="guilsinglleft" unicode="&#x2039;" horiz-adv-x="540" 
d="M434 809v-127l-209 -203l209 -207v-125l-344 332z" />
    <glyph glyph-name="guilsinglright" unicode="&#x203a;" horiz-adv-x="540" 
d="M106 682v127l343 -330l-343 -332v125l207 207z" />
    <glyph glyph-name="uni205F" unicode="&#x205f;" horiz-adv-x="432" 
 />
    <glyph glyph-name="afii57636" unicode="&#x20aa;" horiz-adv-x="1462" 
d="M287 868v-868h-154v989q379 22 516 25q137 -7 233.5 -79.5t96.5 -205.5v-356q-3 -34 -32 -51t-95 -17v424q0 66 -62.5 109t-134.5 43t-211.5 -6t-156.5 -7zM1198 524v467h150v-489q0 -518 -486 -518q-52 0 -111 3t-131 8t-116 7v676h127v-545q200 -10 229 -10
q182 0 260 99.5t78 301.5z" />
    <glyph glyph-name="Euro" unicode="&#x20ac;" horiz-adv-x="1239" 
d="M55 745l43 113h107q44 221 182 325.5t389 104.5q185 0 348 -71l-45 -105q-86 35 -166 48.5t-184 13.5q-277 0 -350 -316h610l-49 -113h-588q-4 -37 -4 -110q0 -63 2 -94h514l-49 -113h-442q69 -334 354 -334q169 0 401 39l29 -113q-235 -40 -436 -40q-435 0 -518 448
h-148l43 113h88q-2 33 -2 96q0 71 4 108h-133z" />
    <glyph glyph-name="trademark" unicode="&#x2122;" horiz-adv-x="1253" 
d="M23 1274h454v-64h-182v-602h-84v602h-188v64zM627 1120v-512h-84v666h86l221 -541l215 541h90v-666h-84v518l-192 -518h-58z" />
    <glyph glyph-name="uni25FC" unicode="&#x25fc;" horiz-adv-x="942" 
d="M0 942h942v-942h-942v942z" />
    <glyph glyph-name="uniFB01" unicode="&#xfb01;" horiz-adv-x="886" 
d="M784 1311l-28 -105q-152 54 -277 54q-49 0 -83 -16.5t-53 -42t-29.5 -70t-13.5 -87t-3 -106.5h444v-938h-145v831h-301v-831h-145v831h-138v107h142q0 229 68 329.5t233 100.5q71 0 138 -11.5t124.5 -27.5t66.5 -18z" />
    <glyph glyph-name="uniFB02" unicode="&#xfb02;" horiz-adv-x="905" 
d="M481 938v-107h-186v-831h-145v831h-138v107h142q0 229 68 329.5t233 100.5q71 0 138.5 -11.5t127 -27.5t67.5 -18l-28 -105v-1206h-146v1247q-60 13 -135 13q-49 0 -83 -16.5t-53 -42t-29.5 -70t-13.5 -87t-3 -106.5h184z" />
    </font>
</defs>
</svg>
